Welcome Guest ( Log In | Register )

> И неформату есть предел.

Рэп/хип-хоп/шансон/поп удаляются. Для них есть свои порталы.

> All Pigs Must Die - Hostage Animal (2017), Chaotic Hardcore (D6)
post Oct 3 2017, 20:19:13
Post #1

Правь статус, ####!111
**************
Group: Металариец
Posts: 30,438
Releases: 470
On Forums: 8 years 8 months
Thanks: 23362 time(s)
Russian Federation


(IMG:http://metalarea.org/images/audiocovers/2017_Oct/acov_tid295590_thumb.jpg)

*Artist: All Pigs Must Die
*Album: Hostage Animal
*Year: 2017
*Genre: Chaotic Hardcore
*Country: United States (IMG:http://metalarea.org/forum/style_images/flags/United%20States.png)
*Format: mp3@CBR320kbps
*Size: 77MB

Tracklist:
01. Hostage Animal
02. A Caustic Vision
03. Meditation of Violence
04. Slave Morality
05. End Without End
06. Blood Wet Teeth
07. Moral Purge
08. Cruelty Incarnate
09. The Whip
10. Heathen Reign
******************************
Total playing time: 34:59

(IMG:http://metalarea.org/images/youtube.png)

Technical info
(IMG:http://metalarea.org/images/spectrogram/2017_Oct/ca484701ca539729ff1287af1f5befdd.png)
Input File: 01. Hostage Animal.mp3
Channels : 2
Sample Rate : 44100
Precision : 16-bit
Duration : 00:03:01.49 = 8003797 samples = 13611.9 CDDA sectors
File Size : 7.26M
Bit Rate : 320k
Sample Encoding: MPEG audio (layer I, II or III)
Comments :
Title=Hostage Animal
Artist=All Pigs Must Die
Album=Hostage Animal
Tracknumber=01/10
Year=2017
Discnumber=1/1



Register


Вернуться к началу страницы
  Insert nick Quick quote
+Цитировать сообщение
 
Создать новую тему
Replies (1 - 1)
post Oct 4 2017, 09:54:01
Post #2

Правь статус, ####!111
**************
Group: Металариец
Posts: 30,438
Releases: 470
On Forums: 8 years 8 months
Thanks: 23362 time(s)
Russian Federation


Считаются вроде как безумно бешеной и котируемой среди узкого круга ценителей стиля командой...
Вернуться к началу страницы
  Insert nick Quick quote
+Цитировать сообщение

ОтветитьСоздать новую тему
2 User(s) are reading this topic (2 Guests and 0 Anonymous Users)
0 Members:

 



- Lo-Fi Version Support form
Copyrights and abuse reports form
Time is now: 23rd February 2018 - 20:48:20