Welcome Guest ( Log In | Register )

> Forum rules / Правила раздела

Here go releases which can't go to New releases forums due lack of information, stolen links or incorrect data and just founded in other sites links with minimum info. Reissue of this releases through Add release form with added/corrected data, info and own links highly welcomed.

Сюда уходят релизы, не пропущенные в основные релизные форумы по причинам отсутствия, недостаточности или неверности/некорректности сопровождающей информации, содержащие ссылки, указывающие на файлы, залитые не автором темы, а так же просто найденные где-то ссылки с минимумом информации. Переоформление тем отсюда через форму Добавления релиза с перезаливкой ссылок крайне приветствуется.

 
ОтветитьСоздать новую тему
> Black Twilight - Into Eternal Dark [demo] (2007), Black Metal (D6)
Blake
post Oct 3 2017, 20:36:51
Post #1

Guests team






(IMG:http://metalarea.org/images/audiocovers/nocover.gif)

*Artist: Black Twilight
*Album: Into Eternal Dark [demo]
*Year: 2007
*Genre: Black Metal
*Country: Australia (IMG:http://metalarea.org/forum/style_images/flags/Australia.png)
*Format: mp3@CBR320kbps
*Size: 18MB

Tracklist:
01.Untitled
02.Untitled
******************************
Total playing time: 7:52

Extended info



 ! 

Fake & incomplete
 


Technical info
(IMG:http://metalarea.org/images/spectrogram/2017_Oct/1d5e02fd6ef3e4c6ceb7cae5d40f56fe.png)
Input File: 1-Untitled.mp3
Channels : 2
Sample Rate : 44100
Precision : 16-bit
Duration : 00:02:39.68 = 7041668 samples = 11975.6 CDDA sectors
File Size : 6.39M
Bit Rate : 320k
Sample Encoding: MPEG audio (layer I, II or III)
Comments :
Title=[Untitled]
Artist=Black Twilight
Album=Into Eternal Dark (Promo 2007)
Tracknumber=1



Register


Вернуться к началу страницы
  Insert nick Quick quote
+Цитировать сообщение

ОтветитьСоздать новую тему
2 User(s) are reading this topic (2 Guests and 0 Anonymous Users)
0 Members:

 



- Lo-Fi Version Support form
Copyrights and abuse reports form
Time is now: 24th February 2018 - 19:01:29