Welcome Guest ( Log In | Register )

 
Reply to this topicStart new topic
> Various Artists - Bipolar Disorder - Tribute To Manic Depression (2016), Thrash Metal
post Oct 4 2017, 02:02:28
Post #1

Слэм-неволяшка
***********
Group: Металариец
Posts: 1,664
Releases: 144
From: Севастополь
On Forums: 13 years 5 months
Thanks: 1878 time(s)
Russian Federation


(IMG:https://metalarea.org/images/audiocovers/2017_Oct/acov_tid295601_thumb.jpg)

*Artist: Various Artists
*Album: Bipolar Disorder - Tribute To Manic Depression
*Year: 2016
*Genre: Thrash Metal
*Country: Russian Federation (IMG:https://metalarea.org/forum/style_images/flags/Russian%20Federation.png)
*Format: mp3@CBR320kbps
*Size: 135MB

Tracklist:
1. NEURASTHENIA - Nightmareality (3:40)
2. СТАХАНОВЦЫ - Memories of non forgiveness (5:11)
3. MURDERLUST - New world disorder (4:06)
4. DELITIUM SILENCE - Леденящая вечность (5:59)
5. KAAK - Fell so low (4:36)
6. VERITAMORPH - Suicide on the battlefield (5:10)
7. ETNA - Evil in disguise (3:21)
8. STEEL WIZARD - Buried alive (4:30)
9. КОМА - Uncertainity (2:21)
10. FORMALINE - Afterlife (3:35)
11. ADEST - Words of hate (3:52)
12. MESSAGE TO OMEGA - Box of lies (4:28)
13. ЛОГОВО МЁРТВЫХ - Ghetto (4:03)
14. MEGBEGB - No future (4:15)
******************************
Total playing time: 59:07

Technical info
(IMG:https://metalarea.org/images/spectrogram/2017_Oct/c1f0b336a3b2106a2f4055e0df49a3e4.png)
Input File: 02 - СТАХАНОВЦЫ - Memories of non forgiveness.mp3
Channels : 2
Sample Rate : 48000
Precision : 16-bit
Duration : 00:05:12.00 = 14976144 samples ~ 23400.2 CDDA sectors
File Size : 12.5M
Bit Rate : 320k
Sample Encoding: MPEG audio (layer I, II or III)
Comments :
Title=Memories of non forgiveness
Artist=СТАХАНОВЦЫ
Album=Bipolar disorder - Tribute to Manic Depression
Tracknumber=2
Year=2016
Genre=Thrash Metal



Register


Go to the top of the page
  Insert nick Quick quote
+Quote Post

Reply to this topicStart new topic
2 User(s) are reading this topic (2 Guests and 0 Anonymous Users)
0 Members:

 



- Lo-Fi Version Support form
Copyrights and abuse reports form
Time is now: 21st September 2019 - 16:04:29