Welcome Guest ( Log In | Register )

> » неформату есть предел.

–эп/хип-хоп/шансон/поп удал€ютс€. ƒл€ них есть свои порталы.

> Ѕи 2 - Ѕи 2 (2000), Rock
post Oct 4 2017, 15:49:54
Post #1

ѕравь статус, ####!111
**************
Group: ћеталариец
Posts: 30,132
Releases: 469
On Forums: 8 years 8 months
Thanks: 23164 time(s)
Russian Federation


(IMG:http://metalarea.org/images/audiocovers/2017_Oct/acov_tid295620_thumb.jpg)

*Artist: Ѕи 2
*Album: Ѕи 2
*Year: 2000
*Genre: Rock
*Country: Belarus (IMG:http://metalarea.org/forum/style_images/flags/Belarus.png)
*Format: mp3@CBR320kbps
*Size: 129MB

Tracklist:
01. ѕолковнику никто не пишет 4:54
02. ¬арвара 5:00
03. Ќикто не придет 5:14
04. ћой друг 4:51
05. » корабль плывет 3:51
06. ¬осток 3:52
07. —ердце 5:08
08. —частье 4:06
09. ƒеньги на ветер 6:34
10. ћедленно схожу с ума 5:50
11. —еребро 4:35
12. —еребро (акустическа€ верси€) 4:24
******************************
Total playing time: 58:19

(IMG:http://metalarea.org/images/youtube.png)

Technical info
(IMG:http://metalarea.org/images/spectrogram/2017_Oct/b20b139854a381ad45d2a6c305fd6e0d.png)
Input File: 01 ѕолковнику никто не пишет.mp3
Channels : 2
Sample Rate : 44100
Precision : 16-bit
Duration : 00:04:54.42 = 12984054 samples = 22081.7 CDDA sectors
File Size : 11.8M
Bit Rate : 320k
Sample Encoding: MPEG audio (layer I, II or III)
Comments :
Title=–Я–Њ–ї–Ї–Њ–≤–љ–Є–Ї—Г –љ–Є–Ї—В–Њ –љ–µ –њ–Є—И–µ—В
Artist=–С–Ш-2
Album=–С–Є-2
Tracknumber=1/12
Year=2001
Genre=Rock



Register


Thanks:
(1) DMIYUR,
¬ернутьс€ к началу страницы
  Insert nick Quick quote
+÷итировать сообщение
 
—оздать новую тему
Replies (1 - 8)
post Oct 4 2017, 17:56:28
Post #2

ѕравь статус, ####!111
**************
Group: ћеталариец
Posts: 30,132
Releases: 469
On Forums: 8 years 8 months
Thanks: 23164 time(s)
Russian Federation


(IMG:style_emoticons/default/pray.gif)
¬ернутьс€ к началу страницы
  Insert nick Quick quote
+÷итировать сообщение
post Oct 4 2017, 19:11:54
Post #3

ѕравь статус, ####!111
**************
Group: ћеталариец
Posts: 30,132
Releases: 469
On Forums: 8 years 8 months
Thanks: 23164 time(s)
Russian Federation


ƒимас, как тебе этот релиз?
¬ернутьс€ к началу страницы
  Insert nick Quick quote
+÷итировать сообщение
post Oct 4 2017, 19:12:33
Post #4

ћегамань€к
***********
Group: ћеталариец
Posts: 1,666
Releases: 1
From: Yaroslavl
On Forums: 1 year 5 months
Thanks: 826 time(s)
Northern Mariana Islands


 ультовый альбом.
Ќаравне с дебютником «верей.
“от малодостижим вообще.
¬ернутьс€ к началу страницы
  Insert nick Quick quote
+÷итировать сообщение
post Oct 4 2017, 19:14:03
Post #5

ѕравь статус, ####!111
**************
Group: ћеталариец
Posts: 30,132
Releases: 469
On Forums: 8 years 8 months
Thanks: 23164 time(s)
Russian Federation


÷»“ј“ј(Faust_Vulkan_16 @ Oct 4 2017, 22:12:33) *
Ќаравне с дебютником «верей.


 ультовый у них это –айоны  варталы (IMG:style_emoticons/default/pray.gif)
¬ернутьс€ к началу страницы
  Insert nick Quick quote
+÷итировать сообщение
post Oct 4 2017, 19:38:52
Post #6

ѕравь статус, ####!111
**************
Group: ћеталариец
Posts: 2,899
Releases: 0
From: ћосква
On Forums: 10 years 1 week
Thanks: 364 time(s)
Russian Federation


јльбом шикарный !
¬ернутьс€ к началу страницы
  Insert nick Quick quote
+÷итировать сообщение
post Oct 4 2017, 19:39:25
Post #7

ѕравь статус, ####!111
**************
Group: ћеталариец
Posts: 30,132
Releases: 469
On Forums: 8 years 8 months
Thanks: 23164 time(s)
Russian Federation


ѕредпоследний крутой у них да
¬ернутьс€ к началу страницы
  Insert nick Quick quote
+÷итировать сообщение
post Oct 5 2017, 12:27:29
Post #8

¬раг √азпрома
**************
Group: ћеталариец
Posts: 5,092
Releases: 0
On Forums: 8 years 8 months
Thanks: 1608 time(s)
Russian Federation


Ќастолько не нравилс€, что почти ничего не помню. ѕри этом "ѕолковника" настолько затаскали, что вызывает рвотные чувства. ¬арвара просто бесит той "игрой" словю “ретий хит, —еребро, вспоминаетс€ только своим названием. Ќи мелодию, ни про что песн€, не могу вспомнить (да и неохота).
јнекдот в тему:
 онцерт группы U2 в Ћондоне. ¬ыходит Ѕоно перед публикой:
Good Evening! We are U2! We begin our concert!
ѕублика (орет): Ѕи2! Ѕи2!
Ѕоно: We are not Ѕи2! we are U2! Our first song is "Pride"!
ѕублика (орет): Ѕи2! Ѕи2! Ѕи2! Ѕи2!
Ѕоно: OK! (кивает Ёджу) Ѕольшие города!...


Thanks:
¬ернутьс€ к началу страницы
  Insert nick Quick quote
+÷итировать сообщение
post Oct 6 2017, 20:11:58
Post #9

«дравый
******
Group: ћеталариец
Posts: 599
Releases: 120
On Forums: 11 years 1 month
Thanks: 2536 time(s)
Ukraine


благодар€ посту под винишко вспомнил юность, прослушал запомнившиес€ треки когда то бывшие на кассете
¬ернутьс€ к началу страницы
  Insert nick Quick quote
+÷итировать сообщение

ќтветить—оздать новую тему
1 User(s) are reading this topic (1 Guests and 0 Anonymous Users)
0 Members:

 



- Lo-Fi Version Support form
Copyrights and abuse reports form
Time is now: 19th February 2018 - 20:37:26