Welcome Guest ( Log In | Register )

> И неформату есть предел.

Рэп/хип-хоп/шансон/поп удаляются. Для них есть свои порталы.

> Би 2 - Би 2 (2000), Rock
post Oct 4 2017, 15:49:54
Post #1
BAN
RO till
Jun 19 2018, 09:57:29



(IMG:http://metalarea.org/images/audiocovers/2017_Oct/acov_tid295620_thumb.jpg)

*Artist: Би 2
*Album: Би 2
*Year: 2000
*Genre: Rock
*Country: Belarus (IMG:http://metalarea.org/forum/style_images/flags/Belarus.png)
*Format: mp3@CBR320kbps
*Size: 129MB

Tracklist:
01. Полковнику никто не пишет 4:54
02. Варвара 5:00
03. Никто не придет 5:14
04. Мой друг 4:51
05. И корабль плывет 3:51
06. Восток 3:52
07. Сердце 5:08
08. Счастье 4:06
09. Деньги на ветер 6:34
10. Медленно схожу с ума 5:50
11. Серебро 4:35
12. Серебро (акустическая версия) 4:24
******************************
Total playing time: 58:19

(IMG:http://metalarea.org/images/youtube.png)

Technical info
(IMG:http://metalarea.org/images/spectrogram/2017_Oct/b20b139854a381ad45d2a6c305fd6e0d.png)
Input File: 01 Полковнику никто не пишет.mp3
Channels : 2
Sample Rate : 44100
Precision : 16-bit
Duration : 00:04:54.42 = 12984054 samples = 22081.7 CDDA sectors
File Size : 11.8M
Bit Rate : 320k
Sample Encoding: MPEG audio (layer I, II or III)
Comments :
Title=Полковнику никто не пишет
Artist=Р‘Р?-2
Album=Би-2
Tracknumber=1/12
Year=2001
Genre=Rock



Register


Thanks:
(1) DMIYUR,
Go to the top of the page
  Insert nick Quick quote
+Quote Post
 
Start new topic
Replies (1 - 8)
post Oct 4 2017, 17:56:28
Post #2
BAN
RO till
Jun 19 2018, 09:57:29



(IMG:style_emoticons/default/pray.gif)
Go to the top of the page
  Insert nick Quick quote
+Quote Post
post Oct 4 2017, 19:11:54
Post #3
BAN
RO till
Jun 19 2018, 09:57:29



Димас, как тебе этот релиз?
Go to the top of the page
  Insert nick Quick quote
+Quote Post
post Oct 4 2017, 19:12:33
Post #4

Мегаманьяк
***********
Group: Металариец
Posts: 1,975
Releases: 2
From: Yaroslavl
On Forums: 1 year 9 months
Thanks: 1064 time(s)
Northern Mariana Islands


Культовый альбом.
Наравне с дебютником Зверей.
Тот малодостижим вообще.
Go to the top of the page
  Insert nick Quick quote
+Quote Post
post Oct 4 2017, 19:14:03
Post #5
BAN
RO till
Jun 19 2018, 09:57:29



ЦИТАТА(Faust_Vulkan_16 @ Oct 4 2017, 22:12:33) *
Наравне с дебютником Зверей.


Культовый у них это Районы Кварталы (IMG:style_emoticons/default/pray.gif)
Go to the top of the page
  Insert nick Quick quote
+Quote Post
post Oct 4 2017, 19:38:52
Post #6

Правь статус, ####!111
**************
Group: Металариец
Posts: 2,939
Releases: 0
From: Москва
On Forums: 10 years 4 months
Thanks: 382 time(s)
Russian Federation


Альбом шикарный !
Go to the top of the page
  Insert nick Quick quote
+Quote Post
post Oct 4 2017, 19:39:25
Post #7
BAN
RO till
Jun 19 2018, 09:57:29



Предпоследний крутой у них да
Go to the top of the page
  Insert nick Quick quote
+Quote Post
post Oct 5 2017, 12:27:29
Post #8

Враг Газпрома
**************
Group: Металариец
Posts: 5,339
Releases: 0
On Forums: 9 years 2 weeks
Thanks: 1740 time(s)
Russian Federation


Настолько не нравился, что почти ничего не помню. При этом "Полковника" настолько затаскали, что вызывает рвотные чувства. Варвара просто бесит той "игрой" словю Третий хит, Серебро, вспоминается только своим названием. Ни мелодию, ни про что песня, не могу вспомнить (да и неохота).
Анекдот в тему:
Концерт группы U2 в Лондоне. Выходит Боно перед публикой:
Good Evening! We are U2! We begin our concert!
Публика (орет): Би2! Би2!
Боно: We are not Би2! we are U2! Our first song is "Pride"!
Публика (орет): Би2! Би2! Би2! Би2!
Боно: OK! (кивает Эджу) Большие города!...


Thanks:
Go to the top of the page
  Insert nick Quick quote
+Quote Post
post Oct 6 2017, 20:11:58
Post #9

Здравый
******
Group: Металариец
Posts: 601
Releases: 120
On Forums: 11 years 5 months
Thanks: 2539 time(s)
Ukraine


благодаря посту под винишко вспомнил юность, прослушал запомнившиеся треки когда то бывшие на кассете
Go to the top of the page
  Insert nick Quick quote
+Quote Post

Reply to this topicStart new topic
1 User(s) are reading this topic (1 Guests and 0 Anonymous Users)
0 Members:

 



- Lo-Fi Version Support form
Copyrights and abuse reports form
Time is now: 19th June 2018 - 03:49:08