Welcome Guest ( Log In | Register )

> И неформату есть предел.

Рэп/хип-хоп/шансон/поп удаляются. Для них есть свои порталы.

> King Krule - The Ooz (2017), Indie Rock, Experimental, Lo-Fi, Trip Hop
post Oct 4 2017, 19:41:35
Post #1

стазис эпидерсис
***********
Group: Металариец
Posts: 1,592
Releases: 0
On Forums: 2 years 3 weeks
Thanks: 963 time(s)
Unknown


(IMG:https://metalarea.org/images/audiocovers/2017_Oct/acov_tid295632_thumb.jpg)

*Artist: King Krule
*Album: The Ooz
*Year: 2017
*Genre: Indie Rock, Experimental, Lo-Fi, Trip Hop
*Country: United Kingdom (IMG:https://metalarea.org/forum/style_images/flags/United%20Kingdom.png)
*Format: mp3@CBR320kbps
*Size: 140MB

Tracklist:
01. Biscuit Town
02. The Locomotive
03. Dum Surfer
04. Slush Puppy
05. Bermondsey Bosom (Left)
06. Logos
07. Sublunary
08. Lonely Blue
09. Cadet Limbo
10. Emergency Blimp
11. Czech One
12. A Slide In (New Drugs)
13. Vidual
14. Bermondsey Bosom (Right)
15. Half Man Half Shark
16. The Cadet Leaps
17. The OOZ
18. Midnight 01 (Deep Sea Diver)
19. La Lune
******************************
Total playing time: 1:06:25



Technical info
(IMG:https://metalarea.org/images/spectrogram/2017_Oct/fb90836faafdc4e543ab2934e7b1b562.png)
Input File: 02. The Locomotive.mp3
Channels : 2
Sample Rate : 44100
Precision : 16-bit
Duration : 00:02:51.76 = 7574484 samples = 12881.8 CDDA sectors
File Size : 6.88M
Bit Rate : 321k
Sample Encoding: MPEG audio (layer I, II or III)
Comments :
Title=The Locomotive
Artist=King Krule
Album=The OOZ
Tracknumber=02/19
Year=2017
Discnumber=1/1



Register


Thanks:
(1) abob,
Вернуться к началу страницы
  Insert nick Quick quote
+Цитировать сообщение
 
Создать новую тему
Replies (1 - 2)
post Oct 5 2017, 06:52:08
Post #2

стазис эпидерсис
***********
Group: Металариец
Posts: 1,592
Releases: 0
On Forums: 2 years 3 weeks
Thanks: 963 time(s)
Unknown


Альбом вышка! То что нужно, чтобы броситься сломя голову в осень и принять неизбежное.©
Вернуться к началу страницы
  Insert nick Quick quote
+Цитировать сообщение
post Nov 11 2017, 22:11:27
Post #3

стазис эпидерсис
***********
Group: Металариец
Posts: 1,592
Releases: 0
On Forums: 2 years 3 weeks
Thanks: 963 time(s)
Unknown


Register
Вернуться к началу страницы
  Insert nick Quick quote
+Цитировать сообщение

ОтветитьСоздать новую тему
2 User(s) are reading this topic (2 Guests and 0 Anonymous Users)
0 Members:

 



- Lo-Fi Version Support form
Copyrights and abuse reports form
Time is now: 24th February 2018 - 11:11:24