Welcome Guest ( Log In | Register )

> И неформату есть предел.

Рэп/хип-хоп/шансон/поп удаляются. Для них есть свои порталы.

> Beth Gibbons & Rustin Man - Out Of Season (2002), Indie Folk/Jazz
post Oct 4 2017, 20:00:35
Post #1

Let's Go Rangers!
***********
Group: Металариец
Posts: 1,503
Releases: 21
From: Киев
On Forums: 11 years 1 day
Thanks: 2099 time(s)
Ukraine


(IMG:https://metalarea.org/images/audiocovers/2017_Oct/acov_tid295633_thumb.jpg)

*Artist: Beth Gibbons & Rustin Man
*Album: Out Of Season
*Year: 2002
*Genre: Indie Folk/Jazz
*Country: United Kingdom (IMG:https://metalarea.org/forum/style_images/flags/United%20Kingdom.png)
*Format: mp3@CBR320kbps
*Size: 90MB

Tracklist:
1 Mysteries 4:39
2 Tom The Model 3:41
3 Show 4:26
4 Romance 5:09
5 Sand River 3:48
6 Spider Monkey 4:10
7 Resolve 2:51
8 Drake 3:54
9 Funny Time Of Year 6:48
10 Rustin Man 4:22
******************************
Total playing time: 43:48

(IMG:https://metalarea.org/images/youtube.png)

Extended info
Бет Гиббонс - вокалистка Portishead.


Technical info
(IMG:https://metalarea.org/images/spectrogram/2017_Oct/99cb71c45dc1601c06a833e92f1eb53c.png)
Input File: 02 - Tom The Model.mp3
Channels : 2
Sample Rate : 44100
Precision : 16-bit
Duration : 00:03:40.42 = 9720698 samples = 16531.8 CDDA sectors
File Size : 8.82M
Bit Rate : 320k
Sample Encoding: MPEG audio (layer I, II or III)
Comments :
Title=Tom The Model
Artist=Beth Gibbons & Rustin Man
Album=Out Of Season
Tracknumber=02
Year=2002
Genre=Indie Folk/Jazz



Register


Вернуться к началу страницы
  Insert nick Quick quote
+Цитировать сообщение
 
Создать новую тему
Replies (1 - 1)
post Oct 5 2017, 14:40:32
Post #2

Четыре Литра
****
Group: Металариец
Posts: 352
Releases: 0
From: Харьков
On Forums: 8 years 4 months
Thanks: 93 time(s)
Ukraine


Неплохая работа, но Portishead лучше и оригинальнее.
Вернуться к началу страницы
  Insert nick Quick quote
+Цитировать сообщение

ОтветитьСоздать новую тему
1 User(s) are reading this topic (1 Guests and 0 Anonymous Users)
0 Members:

 



- Lo-Fi Version Support form
Copyrights and abuse reports form
Time is now: 19th February 2018 - 20:49:03