Welcome Guest ( Log In | Register )

> И неформату есть предел.

Рэп/хип-хоп/шансон/поп удаляются. Для них есть свои порталы.

> Goldfrapp - Felt Mountain (2000), Trip-Hop/Ambient
post Oct 4 2017, 20:10:23
Post #1

Let's Go Rangers!
***********
Group: Металариец
Posts: 1,515
Releases: 21
From: Киев
On Forums: 11 years 5 days
Thanks: 2110 time(s)
Ukraine


(IMG:https://metalarea.org/images/audiocovers/2017_Oct/acov_tid295634_thumb.jpg)

*Artist: Goldfrapp
*Album: Felt Mountain
*Year: 2000
*Genre: Trip-Hop/Ambient
*Country: United Kingdom (IMG:https://metalarea.org/forum/style_images/flags/United%20Kingdom.png)
*Format: mp3@CBR320kbps
*Size: 84MB

Tracklist:
1. Lovely Head (3:49)
2. Paper Bag (4:05)
3. Human (4:36)
4. Pilots (4:29)
5. Deer Stop (4:06)
6. Felt Mountain (4:17)
7. Oompa Radar (4:42)
8. Utopia (4:18)
9. Horse Tears (5:10)
******************************
Total playing time: 39:32

(IMG:https://metalarea.org/images/youtube.png)

Technical info
(IMG:https://metalarea.org/images/spectrogram/2017_Oct/fb5758524ebaf476456ba0ebea65c193.png)
Input File: 01 - Lovely Head.mp3
Channels : 2
Sample Rate : 44100
Precision : 16-bit
Duration : 00:03:49.88 = 10137708 samples = 17241 CDDA sectors
File Size : 9.20M
Bit Rate : 320k
Sample Encoding: MPEG audio (layer I, II or III)
Comments :
Title=Lovely Head
Artist=Goldfrapp
Album=Felt Mountain
Tracknumber=01
Year=2000
Genre=Electronic/Trip-Hop/Ambient



Register


Вернуться к началу страницы
  Insert nick Quick quote
+Цитировать сообщение
 
Создать новую тему
Replies (1 - 1)
post Oct 5 2017, 14:42:23
Post #2

Четыре Литра
****
Group: Металариец
Posts: 366
Releases: 0
From: Харьков
On Forums: 8 years 4 months
Thanks: 95 time(s)
Ukraine


Лучший альбом этого проекта. Новый, кстати, тоже на удивление годный, вторая его половина, в особенности. Black Cat'у мой респект за выкладывание подобной музыки (IMG:style_emoticons/default/9.gif)


Thanks:
Вернуться к началу страницы
  Insert nick Quick quote
+Цитировать сообщение

ОтветитьСоздать новую тему
2 User(s) are reading this topic (2 Guests and 0 Anonymous Users)
0 Members:

 



- Lo-Fi Version Support form
Copyrights and abuse reports form
Time is now: 24th February 2018 - 11:12:02