Welcome Guest ( Log In | Register )

> И неформату есть предел.

Рэп/хип-хоп/шансон/поп удаляются. Для них есть свои порталы.

> Ленинград - Дачники (2000), Ska/Rock
post Oct 5 2017, 12:29:56
Post #1

Правь статус, ####!111
**************
Group: Металариец
Posts: 30,438
Releases: 470
On Forums: 8 years 8 months
Thanks: 23362 time(s)
Russian Federation


(IMG:http://metalarea.org/images/audiocovers/2017_Oct/acov_tid295672_thumb.jpg)

*Artist: Ленинград
*Album: Дачники
*Year: 2000
*Genre: Ska/Rock
*Country: Russian Federation (IMG:http://metalarea.org/forum/style_images/flags/Russian%20Federation.png)
*Format: mp3@CBR320kbps
*Size: 99MB

Tracklist:
01. Дачники 2:11
02. СКА 1:47
03. Когда net денег 2:59
04. Руки из карманов 1:33
05. Колбаса-любовь 1:18
06. Х в пальто 2:58
07. Космос 1:41
08. 007 2:11
09. Инструментал 2:06
10. День Рождения 1:28
11. Нашла 3:06
12. Я и.о. Б.Г. 1:39
13. Блюз 3:08
14. Группа крови 3:28
15. Прогноз погоды 2:16
16. Ну погоди 1:40)
17. Терминатор 2:56
18. Всё это рейв 3:28
19. 007 2:05
******************************
Total playing time: 43:58

(IMG:http://metalarea.org/images/youtube.png)

Technical info
(IMG:http://metalarea.org/images/spectrogram/2017_Oct/8d458c49e9db7553d90ac10895c68be9.png)
Input File: 01. Дачники.mp3
Channels : 2
Sample Rate : 44100
Precision : 16-bit
Duration : 00:02:10.78 = 5767574 samples = 9808.8 CDDA sectors
File Size : 5.35M
Bit Rate : 327k
Sample Encoding: MPEG audio (layer I, II or III)
Comments :
Title=Дачники
Artist=Ленинград
Album=Дачники (полная версия)
Tracknumber=01/19
Year=2000
Genre=Rock
Discnumber=1



Register


Thanks:
Вернуться к началу страницы
  Insert nick Quick quote
+Цитировать сообщение
3 Pages V  < 1 2 3  
Создать новую тему
Replies (60 - 60)
post Feb 8 2018, 20:26:48
Post #61

Правь статус, ####!111
**************
Group: Металариец
Posts: 30,438
Releases: 470
On Forums: 8 years 8 months
Thanks: 23362 time(s)
Russian Federation


Отличная пролетарская музыка. (IMG:style_emoticons/default/pray.gif)

Шнур очень точно выразил вечный момент.

Слушаю и кайфую как в первый раз.
Вернуться к началу страницы
  Insert nick Quick quote
+Цитировать сообщение

3 Pages V  < 1 2 3
ОтветитьСоздать новую тему
2 User(s) are reading this topic (2 Guests and 0 Anonymous Users)
0 Members:

 



- Lo-Fi Version Support form
Copyrights and abuse reports form
Time is now: 23rd February 2018 - 20:55:28