Welcome Guest ( Log In | Register )

> Damnation Defaced - Invader From Beyond (2017), Melodic/Progressive Death Metal (D5)
post Oct 5 2017, 13:59:29
Post #1

Serial Uploader
Group Icon
Group: V.I.P
Posts: 39,288
Releases: 37423
From: Lithuania
On Forums: 14 years 5 months
Thanks: 469221 time(s)
Lithuania


(IMG:https://metalarea.org/images/audiocovers/2017_Oct/acov_tid295682_thumb.jpg)

*Artist: Damnation Defaced
*Album: Invader From Beyond
*Year: 2017
*Genre: Melodic/Progressive Death Metal
*Country: Germany (IMG:https://metalarea.org/forum/style_images/flags/Germany.png)
*Format: mp3@CBR320kbps
*Size: 90MB

Tracklist:
01. Niom: 004d004f0049004e 00:48
02. Goddess Of Machines 04:51
03. Invader From Beyond 04:03
04. Mark Of Cain 03:59
05. The Observer 05:44
06. The Key To Your Voice 03:51
07. Rendezvous With Destiny 01:32
08. All Comes To Its End 04:33
09. Back From Apathy 03:44
10. Creator's Fall 04:16
11. Embraced By Infinity 05:04
******************************
Total playing time: 42:25






Technical info
(IMG:https://metalarea.org/images/spectrogram/2017_Oct/ad764fbbead4f6b7034b59985aecbd14.png)
Input File: 02-damnation_defaced-goddess_of_machines-693016ef.mp3
Channels : 2
Sample Rate : 44100
Precision : 16-bit
Duration : 00:04:51.48 = 12854180 samples = 21860.9 CDDA sectors
File Size : 11.7M
Bit Rate : 320k
Sample Encoding: MPEG audio (layer I, II or III)
Comments :
Title=Goddess of Machines
Artist=Damnation Defaced
Album=Invader from Beyond
Tracknumber=2/11
Year=2017
Genre=22



Register


Go to the top of the page
  Insert nick Quick quote
+Quote Post
 
Start new topic
Replies (1 - 3)
post Oct 5 2017, 21:05:53
Post #2

MDM-Thrash Metal
**************
Group: Металариец
Posts: 11,470
Releases: 1602
From: Одесса
On Forums: 15 years 3 months
Thanks: 37777 time(s)
Ukraine




Неплохо! (IMG:style_emoticons/default/20.gif)

Register


Go to the top of the page
  Insert nick Quick quote
+Quote Post
post Oct 10 2017, 11:05:00
Post #3

Ъ
**************
Group: Металариец
Posts: 11,110
Releases: 9
On Forums: 13 years 10 months
Thanks: 2237 time(s)
Sweden


Приятный альбом, с удовольствием прогнал.


Thanks:
(1) WOLAND,
Go to the top of the page
  Insert nick Quick quote
+Quote Post
post Sep 22 2022, 17:25:16
Post #4

Мегаманьяк
***********
Group: Металариец
Posts: 1,579
Releases: 0
On Forums: 13 years 9 months
Thanks: 616 time(s)
South Korea


1. 320 kbps from the neighborhood on the web:
Register

Register

Thanks to Nomore13!

2. Each track previewable or downloadable at 320 kbps for free (or purchase) if you want to preview or miss some tracks:
Register


[All credits go to the band and the posters.]
Go to the top of the page
  Insert nick Quick quote
+Quote Post

Reply to this topicStart new topic
1 User(s) are reading this topic (1 Guests and 0 Anonymous Users)
0 Members:

 



- Lo-Fi Version Support form
Copyrights and abuse reports form
Time is now: 29th November 2022 - 12:22:54