Welcome Guest ( Log In | Register )

> И неформату есть предел.

Рэп/хип-хоп/шансон/поп удаляются. Для них есть свои порталы.

> Lunatic Soul - Fractured (2017), Atmospheric Progressive Rock (D5)
post Oct 5 2017, 15:10:52
Post #1

Аннигилятор пивА
Group Icon
Group: V.I.P
Posts: 46,786
Releases: 14052
From: Koenigsberg - TILZIT
On Forums: 12 years 3 weeks
Thanks: 311826 time(s)
Russian Federation


(IMG:https://metalarea.org/images/audiocovers/2017_Oct/acov_tid295690_thumb.jpg)

*Artist: Lunatic Soul
*Album: Fractured
*Year: 2017
*Genre: Atmospheric Progressive Rock
*Country: Poland (IMG:https://metalarea.org/forum/style_images/flags/Poland.png)
*Format: mp3@CBR320kbps
*Size: 130MB

Tracklist:
1. Blood on the Tightrope
2. Anymore
3. Crumbling Teeth and the Owl Eyes
4. Red Light Escape
5. Fractured
6. A Thousand Shards of Heaven
7. Battlefield
8. Moving On
******************************
Total playing time: 55:26



Extended info


Technical info
(IMG:https://metalarea.org/images/spectrogram/2017_Oct/817fc0a151902b16d75e2884ef5e9891.png)
Input File: 02 - Anymore.mp3
Channels : 2
Sample Rate : 44100
Precision : 16-bit
Duration : 00:04:36.36 = 12187256 samples = 20726.6 CDDA sectors
File Size : 11.1M
Bit Rate : 322k
Sample Encoding: MPEG audio (layer I, II or III)
Comments :
Title=Anymore
Artist=Lunatic Soul
Album=Fractured
Tracknumber=2
Year=2017
Genre=Melancholic, Progressive Rock



Register


Go to the top of the page
  Insert nick Quick quote
+Quote Post
 
Start new topic
Replies (1 - 9)
post Oct 5 2017, 15:34:21
Post #2

Аннигилятор пивА
Group Icon
Group: V.I.P
Posts: 46,786
Releases: 14052
From: Koenigsberg - TILZIT
On Forums: 12 years 3 weeks
Thanks: 311826 time(s)
Russian Federation


наконец-то да-ду-да-Дуда
mirror
Register


Go to the top of the page
  Insert nick Quick quote
+Quote Post
post Oct 5 2017, 16:50:01
Post #3

Шесть Литров
******
Group: Металариец
Posts: 542
Releases: 0
From: Харьков
On Forums: 8 years 8 months
Thanks: 170 time(s)
Ukraine


Вот это я ждал, прошлый очень крут был. Забираю, спасибо.
Go to the top of the page
  Insert nick Quick quote
+Quote Post
post Oct 5 2017, 21:15:24
Post #4

Аннигилятор пивА
Group Icon
Group: V.I.P
Posts: 46,786
Releases: 14052
From: Koenigsberg - TILZIT
On Forums: 12 years 3 weeks
Thanks: 311826 time(s)
Russian Federation


боюсь сглазить, но вот уже позади пол альбома и пока все прекрасно (IMG:style_emoticons/default/fear.gif) как минимум не хуже предыдущего, боялся куда-нить в эмбиент унесет


Thanks:
(1) Ghostb,
Go to the top of the page
  Insert nick Quick quote
+Quote Post
post Oct 6 2017, 00:38:14
Post #5

Шесть Литров
******
Group: Металариец
Posts: 542
Releases: 0
From: Харьков
On Forums: 8 years 8 months
Thanks: 170 time(s)
Ukraine


ЦИТАТА(aesteticvice @ Oct 5 2017, 23:15:24) *
минимум не хуже предыдущего

Да, согласен, отличный альбом. Композиция A Thousand Shards of Heaven особенно выделяется.
ЦИТАТА(aesteticvice @ Oct 5 2017, 23:15:24) *
боюсь сглазить, но вот уже позади пол альбома и пока все прекрасно

Мне вторая половина даже больше нравится.
Go to the top of the page
  Insert nick Quick quote
+Quote Post
post Oct 6 2017, 10:49:38
Post #6

Девять Литров
*********
Group: Металариец
Posts: 961
Releases: 0
On Forums: 9 years 3 months
Thanks: 327 time(s)
Antarctica


Первый альбом был и останется единственным годным альбомом. Здесь мне только упомянутая выше A Thousand Shards of Heaven понравилась.
Go to the top of the page
  Insert nick Quick quote
+Quote Post
post Oct 6 2017, 16:12:24
Post #7

Шесть Литров
******
Group: Металариец
Posts: 542
Releases: 0
From: Харьков
On Forums: 8 years 8 months
Thanks: 170 time(s)
Ukraine


Мне последние две работы кажутся намного интереснее ранних.
Go to the top of the page
  Insert nick Quick quote
+Quote Post
post Jan 22 2018, 10:55:00
Post #8

.
**************
Group: Металариец
Posts: 2,389
Releases: 1
On Forums: 9 years 11 months
Thanks: 4973 time(s)
Unknown


320
Register
Go to the top of the page
  Insert nick Quick quote
+Quote Post
post Jan 22 2018, 15:13:25
Post #9

Маньяк
**********
Group: Металариец
Posts: 1,196
Releases: 0
From: Kaliningrad
On Forums: 10 years 5 months
Thanks: 357 time(s)
Russian Federation


Старые работы хорошие. Этот тоже послушаем.
Go to the top of the page
  Insert nick Quick quote
+Quote Post
post Feb 8 2018, 20:11:56
Post #10

21st Century Schizoid Man
**************
Group: Металариец
Posts: 5,146
Releases: 67
From: Moscow
On Forums: 10 years 1 month
Thanks: 4056 time(s)
Russian Federation


Оп, оказалось, что пропустил 2011 и 2014. Поскольку этот очень хорошо зашёл, пошёл восполнять пробелы.
Go to the top of the page
  Insert nick Quick quote
+Quote Post

Reply to this topicStart new topic
1 User(s) are reading this topic (1 Guests and 0 Anonymous Users)
0 Members:

 



- Lo-Fi Version Support form
Copyrights and abuse reports form
Time is now: 19th June 2018 - 03:42:33