Welcome Guest ( Log In | Register )

> И неформату есть предел.

Рэп/хип-хоп/шансон/поп удаляются. Для них есть свои порталы.

> Strokkur - Vantablack (2017), Industrial Metal
post Oct 6 2017, 09:16:27
Post #1

Serial Uploader
Group Icon
Group: V.I.P
Posts: 31,478
Releases: 29810
From: Lithuania
On Forums: 9 years 8 months
Thanks: 342228 time(s)
Lithuania


(IMG:http://metalarea.org/images/audiocovers/2017_Oct/acov_tid295724_thumb.jpg)

*Artist: Strokkur
*Album: Vantablack
*Year: 2017
*Genre: Industrial Metal
*Country: Norway (IMG:http://metalarea.org/forum/style_images/flags/Norway.png)
*Format: mp3@CBR320kbps
*Size: 96MB

Tracklist:
01. Song of the Future
02. Lock & Load
03. Souls of Utopia
04. Resurrection
05. Divided Generations
06. Never Too Late
07. Vantablack
08. King of Shadows
09. Destroy
10. The Last Words
11. Silence
******************************
Total playing time: 41:50



Technical info
(IMG:http://metalarea.org/images/spectrogram/2017_Oct/192d8509458e2e96deb4b2fdabc083f8.png)
Input File: 02. Lock & Load.mp3
Channels : 2
Sample Rate : 44100
Precision : 16-bit
Duration : 00:03:44.23 = 9888675 samples = 16817.5 CDDA sectors
File Size : 9.00M
Bit Rate : 321k
Sample Encoding: MPEG audio (layer I, II or III)
Comments :
Title=Lock & Load
Artist=Strokkur
Album=Vantablack
Tracknumber=2/11
Year=2017
Discnumber=1



Register


Вернуться к началу страницы
  Insert nick Quick quote
+Цитировать сообщение
 
Создать новую тему
Replies (1 - 2)
post Oct 6 2017, 11:52:24
Post #2

Аннигилятор пивА
Group Icon
Group: V.I.P
Posts: 45,795
Releases: 13674
From: Koenigsberg - TILZIT
On Forums: 11 years 8 months
Thanks: 302582 time(s)
Russian Federation


(IMG:style_emoticons/default/hmm.gif) Melodic industrial metal.



Thanks:
(1) DarkHorde,
Вернуться к началу страницы
  Insert nick Quick quote
+Цитировать сообщение
post Oct 14 2017, 20:34:31
Post #3

Экскадрилия Утуггофф. УУУ...ЖЖЖ...
**********
Group: Металариец
Posts: 1,122
Releases: 0
From: н.п. Большие Утюги
On Forums: 4 years 11 months
Thanks: 335 time(s)
Russian Federation


Незамысловато, но почему то нескучно и драйвово. (IMG:style_emoticons/default/banana.gif)
Вернуться к началу страницы
  Insert nick Quick quote
+Цитировать сообщение

ОтветитьСоздать новую тему
2 User(s) are reading this topic (2 Guests and 0 Anonymous Users)
0 Members:

 



- Lo-Fi Version Support form
Copyrights and abuse reports form
Time is now: 24th February 2018 - 19:03:54