Welcome Guest ( Log In | Register )

 
Reply to this topicStart new topic
> FearOfHatred - Unrelent (2005), Industrial/Death Metal
post Oct 6 2017, 19:20:00
Post #1
BAN
Banned till
Jun 28 2018, 15:53:36



(IMG:https://metalarea.org/images/audiocovers/2017_Oct/acov_tid295768_thumb.JPG)

*Artist: FearOfHatred
*Album: Unrelent [ep]
*Year: 2005
*Genre: Industrial/Death Metal
*Country: United Kingdom (IMG:https://metalarea.org/forum/style_images/flags/United%20Kingdom.png)
*Format: mp3@CBR320kbps
*Size: 48MB

Tracklist:
01. Darkness 3:00
02. Eyehy 5:22
03. Face 3:31
04. NoGoD 3:13
05. Lethargy 3:53
06. Unholy 2:55
******************************
Total playing time: 21:54

Technical info
(IMG:https://metalarea.org/images/spectrogram/2017_Oct/d86bee6393d7318b3150b29ac6006ce6.png)
Input File: 1. Darkness.mp3
Channels : 2
Sample Rate : 44100
Precision : 16-bit
Duration : 00:03:00.24 = 7948364 samples = 13517.6 CDDA sectors
File Size : 7.21M
Bit Rate : 320k
Sample Encoding: MPEG audio (layer I, II or III)



Register


Go to the top of the page
  Insert nick Quick quote
+Quote Post

Reply to this topicStart new topic
1 User(s) are reading this topic (1 Guests and 0 Anonymous Users)
0 Members:

 



- Lo-Fi Version Support form
Copyrights and abuse reports form
Time is now: 19th June 2018 - 07:57:36