Welcome Guest ( Log In | Register )

 
ОтветитьСоздать новую тему
> Black Dawn - Absence Of Time (1999), Thrash/Groove Metal (D)
post Oct 6 2017, 19:26:21
Post #1

People = Shit
**************
Group: Металариец
Posts: 5,183
Releases: 414
From: Беларусь, Минск
On Forums: 5 years 5 months
Thanks: 5608 time(s)
Belarus


(IMG:https://metalarea.org/images/audiocovers/2017_Oct/acov_tid295769_thumb.jpg)

*Artist: Black Dawn
*Album: Absence Of Time
*Year: 1999
*Genre: Thrash/Groove Metal
*Country: United States (IMG:https://metalarea.org/forum/style_images/flags/United%20States.png)
*Format: mp3@CBR320kbps
*Size: 89MB

Tracklist:
01. Eyes Of the Bottle 02:27
02. February 02:51
03. Shaded Tree 04:56
04. Rock Covered Grave 04:00
05. Room Of White 04:18
06. Wait 03:54
07. When Am I 05:45
08. Wasted Time 03:11
09. Hostile Intentions 03:14
10. Bill's Song 04:52
******************************
Total playing time: 39:28

Technical info
(IMG:https://metalarea.org/images/spectrogram/2017_Oct/5d81efe6d90d3f144e8bf242d9c60437.png)
Input File: 2. February.mp3
Channels : 2
Sample Rate : 44100
Precision : 16-bit
Duration : 00:02:52.08 = 7588904 samples = 12906.3 CDDA sectors
File Size : 6.88M
Bit Rate : 320k
Sample Encoding: MPEG audio (layer I, II or III)



Register


Вернуться к началу страницы
  Insert nick Quick quote
+Цитировать сообщение

ОтветитьСоздать новую тему
2 User(s) are reading this topic (2 Guests and 0 Anonymous Users)
0 Members:

 



- Lo-Fi Version Support form
Copyrights and abuse reports form
Time is now: 20th February 2018 - 10:22:51