Welcome Guest ( Log In | Register )

 
Reply to this topicStart new topic
> Production Grey - Orchestrated Violence (2000), Death Metal/Hardcore
post Oct 6 2017, 19:51:34
Post #1
BAN
Banned till
Nov 9 2018, 22:14:17



(IMG:https://metalarea.org/images/audiocovers/2017_Oct/acov_tid295773_thumb.jpg)

*Artist: Production Grey
*Album: Orchestrated Violence
*Year: 2000
*Genre: Death Metal/Hardcore
*Country: United States (IMG:https://metalarea.org/forum/style_images/flags/United%20States.png)
*Format: mp3@CBR320kbps
*Size: 97MB

Tracklist:
01. Hostile Regression 3:03
02. The Paradox Of Existence 4:10
03. Blissful Ignorance 3:02
04. The Servant Of Evil 1:49
05. Defilement 3:14
06. Encryption 4:03
07. Prophecy 3:48
08. Fear The Eternal 3:18
09. The One 3:25
10. Telepathic Warning 3:38
11. D.U.I. 3:46
12. The Master Race 3:58
13. Riveting Insanity 3:20
******************************
Total playing time: 44:34

Technical info
(IMG:https://metalarea.org/images/spectrogram/2017_Oct/60d873a8870df18fa7dfa6cc6741a2b2.png)
Input File: 06 Encryption.mp3
Channels : 2
Sample Rate : 44100
Precision : 16-bit
Duration : 00:04:03.07 = 10719211 samples = 18230 CDDA sectors
File Size : 9.72M
Bit Rate : 320k
Sample Encoding: MPEG audio (layer I, II or III)



Register


Go to the top of the page
  Insert nick Quick quote
+Quote Post

Reply to this topicStart new topic
1 User(s) are reading this topic (1 Guests and 0 Anonymous Users)
0 Members:

 



- Lo-Fi Version Support form
Copyrights and abuse reports form
Time is now: 21st September 2018 - 00:50:56