Welcome Guest ( Log In | Register )

 
Reply to this topicStart new topic
> Chokeslam - Chokeslam (2001), Groove Metal
post Oct 6 2017, 20:13:20
Post #1
BAN
Banned till
Nov 9 2018, 22:14:17



(IMG:https://metalarea.org/images/audiocovers/2017_Oct/acov_tid295776_thumb.jpg)

*Artist: Chokeslam
*Album: Chokeslam
*Year: 2001
*Genre: Groove Metal
*Country: United States (IMG:https://metalarea.org/forum/style_images/flags/United%20States.png)
*Format: mp3@CBR320kbps
*Size: 82MB

Tracklist:
01. The Reaper Man 03:20
02. Bluh 03:18
03. FRVP 03:42
04. Atom Bomb 05:31
05. Nylon 03:34
06. Saturday Love 03:39
07. Rebel 02:38
08. Three Amigos 03:33
09. Moten Gator 03:09
10. CS420 03:51
******************************
Total playing time: 36:15

Technical info
(IMG:https://metalarea.org/images/spectrogram/2017_Oct/b3dd5a0bf8991c5f0b3b7c39baba80d5.png)
Input File: 02 - Bluh.mp3
Channels : 2
Sample Rate : 44100
Precision : 16-bit
Duration : 00:03:18.94 = 8773298 samples = 14920.6 CDDA sectors
File Size : 7.96M
Bit Rate : 320k
Sample Encoding: MPEG audio (layer I, II or III)



Register


Go to the top of the page
  Insert nick Quick quote
+Quote Post

Reply to this topicStart new topic
1 User(s) are reading this topic (1 Guests and 0 Anonymous Users)
0 Members:

 



- Lo-Fi Version Support form
Copyrights and abuse reports form
Time is now: 21st September 2018 - 02:12:00