Welcome Guest ( Log In | Register )

 
ОтветитьСоздать новую тему
> Cadaveric Mass - Demo #3 [demo] (1994), Death Metal
post Oct 7 2017, 06:01:58
Post #1

Подвал
**************
Group: Металариец
Posts: 11,779
Releases: 6654
From: Far East (Khabarovsk)
On Forums: 9 years 3 weeks
Thanks: 60311 time(s)
Russian Federation


(IMG:http://metalarea.org/images/audiocovers/2017_Oct/acov_tid295800_thumb.jpg)

*Artist: Cadaveric Mass
*Album: Demo #3 [demo]
*Year: 1994
*Genre: Death Metal
*Country: United States (IMG:http://metalarea.org/forum/style_images/flags/United%20States.png)
*Format: mp3@CBR320kbps
*Size: 32MB

Tracklist:
1. Cryogenic Life Forms 07:01
2. Abolishment Of Dreams 06:56
3. Prelude To The Immortal 03:49
******************************
Total playing time: 17:46

(IMG:http://metalarea.org/images/youtube.png)

Extended info
Band from Clearwater, Florida.


Technical info
(IMG:http://metalarea.org/images/spectrogram/2017_Oct/3802a6830ad729ebf03f0afe9ca3e8e1.png)
Input File: 01-Cryogenic Life Forms.mp3
Channels : 2
Sample Rate : 44100
Precision : 16-bit
Duration : 00:07:01.19 = 18574391 samples = 31589.1 CDDA sectors
File Size : 16.8M
Bit Rate : 320k
Sample Encoding: MPEG audio (layer I, II or III)
Comments :
Title=Cryogenic Life Form
Artist=Cadaveric Mass (US, FL)
Album=Demo #3
Tracknumber=01
Year=1994
Genre=Death Metal



Register


Вернуться к началу страницы
  Insert nick Quick quote
+Цитировать сообщение

ОтветитьСоздать новую тему
1 User(s) are reading this topic (1 Guests and 0 Anonymous Users)
0 Members:

 



- Lo-Fi Version Support form
Copyrights and abuse reports form
Time is now: 19th February 2018 - 18:58:10