Welcome Guest ( Log In | Register )

> И неформату есть предел.

Рэп/хип-хоп/шансон/поп удаляются. Для них есть свои порталы.

 
Reply to this topicStart new topic
> Various Artists - Hard Panning [best of/compilation] (2014), Harsh Noise/Industrial
post Oct 7 2017, 16:34:58
Post #1

As Above, so Below
***********
Group: Металариец
Posts: 1,862
Releases: 17
On Forums: 8 years 9 months
Thanks: 3689 time(s)
Russian Federation


(IMG:http://metalarea.org/images/audiocovers/2017_Oct/acov_tid295834_thumb.png)

*Artist: Various Artists
*Album: Hard Panning [best of/compilation]
*Year: 2014
*Genre: Harsh Noise/Industrial
*Country: Many (IMG:http://metalarea.org/forum/style_images/flags/Many.png)
*Format: mp3@CBR320kbps
*Size: 123MB

Tracklist:
1. Facialmess - Original Soldier 3:33
2. Jake Vida - Stressed 3:11
3. T.E.F. - Untitled 2:57
4. Kazumoto Endo - Uszkodzony Falownik 3:27
5. Kazuma Kubota - Farewell 2:38
6. Jaakko Vanhala - New Mythology 4:23
7. Maaa - Utmost Restraint 4:10
8. Purgist - Collapse 2:27
9. Deafault - Irukandji Springs 3:06
10. Ahlzagailzehguh - Fentanyl Fantasy 1:37
11. Developer - Untitled 3:00
12. Mantichora - Ulster Face Fuck 2:57
13. Encephalophonic - Cut My Flesh While I Pulp Your Ass 4:56
14. K2 - Untitled 2:18
15. Lettera 22 - Tolerance 5:32
16. Unknown Artist - Untitled 3:33
******************************
Total playing time: 53:45



Technical info
(IMG:http://metalarea.org/images/spectrogram/2017_Oct/c3dbed286a1d45427861abb5304d5510.png)
Input File: 06 - Jaakko Vanhala - New Mythology.mp3
Channels : 2
Sample Rate : 44100
Precision : 16-bit
Duration : 00:04:23.05 = 11600549 samples = 19728.8 CDDA sectors
File Size : 10.6M
Bit Rate : 322k
Sample Encoding: MPEG audio (layer I, II or III)
Comments :
Title=New Mythology
Artist=Jaakko Vanhala
Album=Hard Panning
Tracknumber=06/16
Year=2014
Genre=Harsh Noise



Register


Go to the top of the page
  Insert nick Quick quote
+Quote Post

Reply to this topicStart new topic
1 User(s) are reading this topic (1 Guests and 0 Anonymous Users)
0 Members:

 



- Lo-Fi Version Support form
Copyrights and abuse reports form
Time is now: 21st September 2018 - 00:59:59