Welcome Guest ( Log In | Register )

> И неформату есть предел.

Рэп/хип-хоп/шансон/поп удаляются. Для них есть свои порталы.

 
Reply to this topicStart new topic
> Thangorodrim - Gil-Estel (2017), Dungeon Synth/Dark Ambient
post Oct 7 2017, 17:39:11
Post #1

𝕻𝕬𝕹𝕬𝕮𝕰𝕬
******
Group: Металариец
Posts: 571
Releases: 326
On Forums: 6 years 3 months
Thanks: 4388 time(s)
Unknown


(IMG:http://metalarea.org/images/audiocovers/2017_Oct/acov_tid295835_thumb.jpg)

*Artist: Thangorodrim
*Album: Gil-Estel
*Year: 2017
*Genre: Dungeon Synth/Dark Ambient
*Country: United States (IMG:http://metalarea.org/forum/style_images/flags/United%20States.png)
*Format: mp3@CBR320kbps
*Size: 231MB

Tracklist:
1. Into The Great Battle 14:03
2. Ancalagon 10:50
3. Vingilótë 04:55
4. By The Light Of The Silmaril 12:48
5. Thangorodrim's Ruin 08:12
6. Gil-Estel (Seamless Mix - Whole Album Bonus Track) 50:50
******************************
Total playing time: 1:41:38



Extended info
-6 Panel Digipack CD (limited to 200)
-Audio Black Cassette, Clear Case (limited to 50)


Technical info
(IMG:http://metalarea.org/images/spectrogram/2017_Oct/24076de3b22f86aac5bb713229f58d0f.png)
Input File: 03 - Vingilote.mp3
Channels : 2
Sample Rate : 44100
Precision : 16-bit
Duration : 00:04:55.61 = 13036225 samples = 22170.5 CDDA sectors
File Size : 11.9M
Bit Rate : 323k
Sample Encoding: MPEG audio (layer I, II or III)
Comments :
Title=Vingilote
Artist=Thangorodrim
Album=Gil-Estel
Tracknumber=03
Year=2017
Genre=Dungeon Synth



Register


Thanks:
Go to the top of the page
  Insert nick Quick quote
+Quote Post

Reply to this topicStart new topic
1 User(s) are reading this topic (1 Guests and 0 Anonymous Users)
0 Members:

 



- Lo-Fi Version Support form
Copyrights and abuse reports form
Time is now: 19th September 2018 - 03:12:42