Welcome Guest ( Log In | Register )

> И неформату есть предел.

Рэп/хип-хоп/шансон/поп удаляются. Для них есть свои порталы.

> Gnaw Their Tongues - Chambers Of Tuam [ep] (2017), Industrial/Experimental
post Oct 8 2017, 08:06:44
Post #1

Правь статус, ####!616
**************
Group: Металариец
Posts: 4,404
Releases: 3004
From: 55°35’N 38°08’E
On Forums: 10 years 2 months
Thanks: 56494 time(s)
Unknown


(IMG:http://metalarea.org/images/audiocovers/2017_Oct/acov_tid295853_thumb.jpg)

*Artist: Gnaw Their Tongues
*Album: Chambers Of Tuam [ep]
*Year: 2017
*Genre: Industrial/Experimental
*Country: Netherlands (IMG:http://metalarea.org/forum/style_images/flags/Netherlands.png)
*Format: mp3@CBR320kbps
*Size: 33MB

Tracklist:
1. Chambers of Tuam 05:12
2. Restored Souls 02:56
3. The Last Rites 05:47
******************************
Total playing time: 13:55



Technical info
(IMG:http://metalarea.org/images/spectrogram/2017_Oct/d6070c0cf94d10aa71cbac3acacba07d.png)
Input File: 01 CHAMBERS OF TUAM.mp3
Channels : 2
Sample Rate : 44100
Precision : 16-bit
Duration : 00:05:12.51 = 13781647 samples = 23438.2 CDDA sectors
File Size : 12.6M
Bit Rate : 323k
Sample Encoding: MPEG audio (layer I, II or III)
Comments :
Title=CHAMBERS OF TUAM
Artist=GNAW THEIR TONGUES
Album=CHAMBERS OF TUAM
Tracknumber=1
Year=2017
Genre=Black Metal



Register


Go to the top of the page
  Insert nick Quick quote
+Quote Post
 
Start new topic
Replies (1 - 1)
post Apr 8 2018, 14:22:24
Post #2

Group: Подсевший
Posts: 31
Releases: 0
On Forums: 8 months 4 weeks
Thanks: 2 time(s)
Unknown


Thanks.
Go to the top of the page
  Insert nick Quick quote
+Quote Post

Reply to this topicStart new topic
1 User(s) are reading this topic (1 Guests and 0 Anonymous Users)
0 Members:

 



- Lo-Fi Version Support form
Copyrights and abuse reports form
Time is now: 20th September 2018 - 19:03:24