Welcome Guest ( Log In | Register )

> Diesel - Blood Is Bond (2006), Groove Metal
post Oct 8 2017, 16:21:07
Post #1
BAN
Banned till
Nov 9 2018, 22:14:17



(IMG:https://metalarea.org/images/audiocovers/2017_Oct/acov_tid295869_thumb.jpg)

*Artist: Diesel
*Album: Blood Is Bond [ep]
*Year: 2006
*Genre: Groove Metal
*Country: United States (IMG:https://metalarea.org/forum/style_images/flags/United%20States.png)
*Format: mp3@CBR320kbps
*Size: 67MB

Tracklist:
01. Amazing Disgrace 05:24
02. Kill Or Be Killed 05:48
03. Blood Is Bond 7:07
04. Heavy Aggression 06:11
05. Foes Pose 5:08
******************************
Total playing time: 29:38

Technical info
(IMG:https://metalarea.org/images/spectrogram/2017_Oct/82d1bb5c526301179bb1396057ad7622.png)
Input File: Diesel - Kill Or Be Killed - Blood is Bond Cd track 2.mp3
Channels : 2
Sample Rate : 44100
Precision : 16-bit
Duration : 00:05:50.15 = 15441659 samples = 26261.3 CDDA sectors
File Size : 14.0M
Bit Rate : 320k
Sample Encoding: MPEG audio (layer I, II or III)



Register


Thanks:
(2) metala, Rosen,
Go to the top of the page
  Insert nick Quick quote
+Quote Post
 
Start new topic
Replies (1 - 1)
post Nov 11 2017, 06:54:06
Post #2

Group: Подсевший
Posts: 30
Releases: 0
On Forums: 5 years 3 weeks
Thanks: 3 time(s)
Peru


re-up please!
Go to the top of the page
  Insert nick Quick quote
+Quote Post

Reply to this topicStart new topic
1 User(s) are reading this topic (1 Guests and 0 Anonymous Users)
0 Members:

 



- Lo-Fi Version Support form
Copyrights and abuse reports form
Time is now: 25th September 2018 - 04:36:08