Welcome Guest ( Log In | Register )

> Hypodust - Here Comes The Pain (2004), Industrial/Groove Metal
post Oct 8 2017, 16:28:16
Post #1

People = Shit
**************
Group: Металариец
Posts: 5,183
Releases: 414
From: Беларусь, Минск
On Forums: 5 years 5 months
Thanks: 5608 time(s)
Belarus


(IMG:https://metalarea.org/images/audiocovers/2017_Oct/acov_tid295870_thumb.jpg)

*Artist: Hypodust
*Album: Here Comes The Pain
*Year: 2004
*Genre: Industrial/Groove Metal
*Country: Canada (IMG:https://metalarea.org/forum/style_images/flags/Canada.png)
*Format: mp3@CBR320kbps
*Size: 98MB

Tracklist:
01. Realizate 5:15
02. Here Comes The Pain 3:23
03. It's A Cycle 2:24
04. I Know It Was You 3:41
05. Make Me Do It 4:20
06. Chemical 5:18
07. Less Important 3:34
08. Smear 4:59
09. So Good 3:20
10. Talking To Myself 4:56
11. Alpha B 3:53
******************************
Total playing time: 45:03

Technical info
(IMG:https://metalarea.org/images/spectrogram/2017_Oct/341873a436f54b11a3e226e869ea3e11.png)
Input File: 02. Here Comes The Pain.mp3
Channels : 2
Sample Rate : 44100
Precision : 16-bit
Duration : 00:03:23.43 = 8971439 samples = 15257.5 CDDA sectors
File Size : 8.14M
Bit Rate : 320k
Sample Encoding: MPEG audio (layer I, II or III)



Register


Thanks:
Вернуться к началу страницы
  Insert nick Quick quote
+Цитировать сообщение
 
Создать новую тему
Replies (1 - 1)
post Nov 11 2017, 06:54:25
Post #2

Group: Подсевший
Posts: 20
Releases: 0
On Forums: 4 years 5 months
Thanks: 3 time(s)
Peru


please re-up!
Вернуться к началу страницы
  Insert nick Quick quote
+Цитировать сообщение

ОтветитьСоздать новую тему
2 User(s) are reading this topic (2 Guests and 0 Anonymous Users)
0 Members:

 



- Lo-Fi Version Support form
Copyrights and abuse reports form
Time is now: 20th February 2018 - 10:19:53