Welcome Guest ( Log In | Register )

 
ОтветитьСоздать новую тему
> Nihilate - Synthetic Order (2011), Thrash/Groove Metal
post Oct 8 2017, 16:34:08
Post #1
BAN
RO till
Feb 26 2018, 11:14:38



(IMG:https://metalarea.org/images/audiocovers/2017_Oct/acov_tid295871_thumb.jpg)

*Artist: Nihilate
*Album: Synthetic Order
*Year: 2011
*Genre: Thrash/Groove Metal
*Country: Canada (IMG:https://metalarea.org/forum/style_images/flags/Canada.png)
*Format: mp3@CBR320kbps
*Size: 84MB

Tracklist:
01. Clearance (Intro) 03:04
02. Warfed 02:49
03. Synthetic Order 03:37
04. Embrace The Body 05:04
05. Mourn Of Hate 03:42
06. Prey For This Nation 05:05
07. Problem Reaction Solution 03:50
08. Dilution 05:17
09. Eyes Of Betrayal 04:44
10. Enemy Of Reason 04:42
******************************
Total playing time: 41:54

Technical info
(IMG:https://metalarea.org/images/spectrogram/2017_Oct/55d4b70d793b3b32e8bf18904cc70ed8.png)
Input File: 2. War Fed.mp3
Channels : 2
Sample Rate : 44100
Precision : 16-bit
Duration : 00:02:49.32 = 7466792 samples = 12698.6 CDDA sectors
File Size : 6.77M
Bit Rate : 320k
Sample Encoding: MPEG audio (layer I, II or III)



Register


Вернуться к началу страницы
  Insert nick Quick quote
+Цитировать сообщение

ОтветитьСоздать новую тему
1 User(s) are reading this topic (1 Guests and 0 Anonymous Users)
0 Members:

 



- Lo-Fi Version Support form
Copyrights and abuse reports form
Time is now: 24th February 2018 - 02:55:43