Welcome Guest ( Log In | Register )

 
Reply to this topicStart new topic
> Dyingrace - Only The Determined Path Remains (1999), Death/Groove Metal/Hardcore
post Oct 8 2017, 16:53:39
Post #1
BAN
Banned till
Jun 28 2018, 15:53:36



(IMG:https://metalarea.org/images/audiocovers/2017_Oct/acov_tid295873_thumb.jpg)

*Artist: Dyingrace
*Album: Only The Determined Path Remains
*Year: 1999
*Genre: Death/Groove Metal/Hardcore
*Country: Japan (IMG:https://metalarea.org/forum/style_images/flags/Japan.png)
*Format: mp3@CBR320kbps
*Size: 69MB

Tracklist:
01. After All 3:36
02. Vengeance Is Mine 4:35
03. Beginning To The End 3:06
04. Insane 3:32
05. Unholy Dominion 4:08
06. Penance 5:16
07. Revive 5:23
******************************
Total playing time: 29:36

Technical info
(IMG:https://metalarea.org/images/spectrogram/2017_Oct/7b8ffc0861d77038fe19fda40abd46ab.png)
Input File: 2. Vengeance Is Mine.mp3
Channels : 2
Sample Rate : 44100
Precision : 16-bit
Duration : 00:04:35.83 = 12164059 samples = 20687.2 CDDA sectors
File Size : 11.0M
Bit Rate : 320k
Sample Encoding: MPEG audio (layer I, II or III)
Comments :
Title=Vengeance Is Mine
Artist=DYINGRACE
Album=Only The Determined Path Remains



Register


Thanks:
Go to the top of the page
  Insert nick Quick quote
+Quote Post

Reply to this topicStart new topic
1 User(s) are reading this topic (1 Guests and 0 Anonymous Users)
0 Members:

 



- Lo-Fi Version Support form
Copyrights and abuse reports form
Time is now: 19th June 2018 - 07:57:39