Welcome Guest ( Log In | Register )

> Signal 30 - Signal 30 (1996), Stoner/Groove Metal
post Oct 8 2017, 17:00:35
Post #1
BAN
Banned till
Jun 28 2018, 15:53:36



(IMG:https://metalarea.org/images/audiocovers/2017_Oct/acov_tid295874_thumb.jpg)

*Artist: Signal 30
*Album: Signal 30
*Year: 1996
*Genre: Stoner/Groove Metal
*Country: United States (IMG:https://metalarea.org/forum/style_images/flags/United%20States.png)
*Format: mp3@CBR320kbps
*Size: 103MB

Tracklist:
01. All Gone 04:54
02. Taken Away 04:06
03. Process Of Elimination 03:24
04. In Need 05:26
05. Pain Waits 03:14
06. Loss Of Control 05:13
07. Complete 06:33
08. Thought Of The Weak 03:06
09. One Point To Make 07:22
10. What Have You 03:12
11. Separation 04:53
******************************
Total playing time: 51:23

Technical info
(IMG:https://metalarea.org/images/spectrogram/2017_Oct/3ae6ca175f8b39c3ebada8d60ea478bb.png)
Input File: 5. Pain Waits.mp3
Channels : 2
Sample Rate : 44100
Precision : 16-bit
Duration : 00:03:14.94 = 8596986 samples = 14620.7 CDDA sectors
File Size : 7.80M
Bit Rate : 320k
Sample Encoding: MPEG audio (layer I, II or III)



Register


Thanks:
(2) metala, Rosen,
Go to the top of the page
  Insert nick Quick quote
+Quote Post
 
Start new topic
Replies (1 - 1)
post Oct 30 2017, 20:24:44
Post #2

Group: Подсевший
Posts: 10
Releases: 0
On Forums: 7 months 3 weeks
Thanks: 0 time(s)
Unknown


божественно
Go to the top of the page
  Insert nick Quick quote
+Quote Post

Reply to this topicStart new topic
1 User(s) are reading this topic (1 Guests and 0 Anonymous Users)
0 Members:

 



- Lo-Fi Version Support form
Copyrights and abuse reports form
Time is now: 23rd June 2018 - 16:51:45