Welcome Guest ( Log In | Register )

> Devoid - One Voice (2007), Groove Metal (D8)
post Oct 8 2017, 17:08:28
Post #1
BAN
RO till
Feb 26 2018, 11:14:38



(IMG:https://metalarea.org/images/audiocovers/2017_Oct/acov_tid295875_thumb.jpg)

*Artist: Devoid
*Album: One Voice
*Year: 2007
*Genre: Groove Metal
*Country: Canada (IMG:https://metalarea.org/forum/style_images/flags/Canada.png)
*Format: mp3@CBR320kbps
*Size: 95MB

Tracklist:
01. Start The Revolution 4:42
02. Fine Line Broken 3:28
03. Godless 3:32
04. Breathe 4:43
05. One Voice 4:56
06. Path 3:07
07. Over And Over 4:04
08. Savior 4:15
09. I Change My Skin 3:24
10. Something Wicked 3:12
11. The Last Goodbye 3:53
******************************
Total playing time: 43:16

Technical info
(IMG:https://metalarea.org/images/spectrogram/2017_Oct/dcc901087a61b26d01d00b4b8a84fbb5.png)
Input File: Godless.mp3
Channels : 2
Sample Rate : 44100
Precision : 16-bit
Duration : 00:03:32.24 = 9359696 samples = 15917.9 CDDA sectors
File Size : 8.49M
Bit Rate : 320k
Sample Encoding: MPEG audio (layer I, II or III)



Register


Thanks:
(2) metala, Rosen,
Вернуться к началу страницы
  Insert nick Quick quote
+Цитировать сообщение
 
Создать новую тему
Replies (1 - 1)
post Oct 30 2017, 20:24:01
Post #2

Group: Подсевший
Posts: 10
Releases: 0
On Forums: 3 months 3 weeks
Thanks: 0 time(s)
Unknown


чудно
Вернуться к началу страницы
  Insert nick Quick quote
+Цитировать сообщение

ОтветитьСоздать новую тему
2 User(s) are reading this topic (2 Guests and 0 Anonymous Users)
0 Members:

 



- Lo-Fi Version Support form
Copyrights and abuse reports form
Time is now: 24th February 2018 - 19:05:50