Welcome Guest ( Log In | Register )

> Nihilate - Resistance (2009), Thrash/Groove Metal
post Oct 8 2017, 17:15:33
Post #1
BAN
Banned till
Jun 28 2018, 15:53:36



(IMG:https://metalarea.org/images/audiocovers/2017_Oct/acov_tid295876_thumb.jpg)

*Artist: Nihilate
*Album: Resistance [ep]
*Year: 2009
*Genre: Thrash/Groove Metal
*Country: Canada (IMG:https://metalarea.org/forum/style_images/flags/Canada.png)
*Format: mp3@CBR320kbps
*Size: 44MB

Tracklist:
01. Resistance 03:13
02. Dementia 03:05
03. Only Me 03:10
04. Motionless 03:43
05. War Internal 03:27
06. Actions Of Anger 03:40
******************************
Total playing time: 20:18

Technical info
(IMG:https://metalarea.org/images/spectrogram/2017_Oct/e86a0292c23649d8919a77479587a6cb.png)
Input File: 1. Resistance.mp3
Channels : 2
Sample Rate : 44100
Precision : 16-bit
Duration : 00:03:13.35 = 8526735 samples = 14501.2 CDDA sectors
File Size : 7.73M
Bit Rate : 320k
Sample Encoding: MPEG audio (layer I, II or III)



Register


Go to the top of the page
  Insert nick Quick quote
+Quote Post
 
Start new topic
Replies (1 - 1)
post Oct 30 2017, 20:23:29
Post #2

Group: Подсевший
Posts: 10
Releases: 0
On Forums: 7 months 2 weeks
Thanks: 0 time(s)
Unknown


отлично
Go to the top of the page
  Insert nick Quick quote
+Quote Post

Reply to this topicStart new topic
1 User(s) are reading this topic (1 Guests and 0 Anonymous Users)
0 Members:

 



- Lo-Fi Version Support form
Copyrights and abuse reports form
Time is now: 19th June 2018 - 07:57:51