Welcome Guest ( Log In | Register )

> Soulquake System ‎ - A Firm Statement (1999), Thrash/Groove Metal/Hardcore
post Oct 8 2017, 17:54:51
Post #1
BAN
Banned till
Jun 28 2018, 15:53:36



(IMG:https://metalarea.org/images/audiocovers/2017_Oct/acov_tid295879_thumb.jpg)

*Artist: Soulquake System ‎
*Album: A Firm Statement
*Year: 1999
*Genre: Thrash/Groove Metal/Hardcore
*Country: Sweden (IMG:https://metalarea.org/forum/style_images/flags/Sweden.png)
*Format: mp3@CBR320kbps
*Size: 106MB

Tracklist:
01. Illegal Love 2:06
02. Years Later 2:04
03. Hope And More Broken 2:07
04. Equal Treatment 1:38
05. Ordinary Suicide 3:20
06. Corrupdead 2:08
07. A Place To Call Home 2:52
08. Something Else 1:04
09. You Number Two 3:15
10. Maranata 3:12
11. Shit Pride 2:17
12. Obsessed By Frame 3:04
13. Political Mass 19:34
******************************
Total playing time: 48:41

Technical info
(IMG:https://metalarea.org/images/spectrogram/2017_Oct/75a01f1ea4625981b6d87e2e6db9d991.png)
Input File: 02 Year Later.mp3
Channels : 2
Sample Rate : 44100
Precision : 16-bit
Duration : 00:02:04.17 = 5475941 samples = 9312.82 CDDA sectors
File Size : 4.97M
Bit Rate : 320k
Sample Encoding: MPEG audio (layer I, II or III)



Register


Thanks:
Go to the top of the page
  Insert nick Quick quote
+Quote Post
 
Start new topic
Replies (1 - 1)
post Oct 30 2017, 20:23:03
Post #2

Group: Подсевший
Posts: 10
Releases: 0
On Forums: 7 months 3 weeks
Thanks: 0 time(s)
Unknown


сногсшибательно
Go to the top of the page
  Insert nick Quick quote
+Quote Post

Reply to this topicStart new topic
1 User(s) are reading this topic (1 Guests and 0 Anonymous Users)
0 Members:

 



- Lo-Fi Version Support form
Copyrights and abuse reports form
Time is now: 23rd June 2018 - 16:51:33