Welcome Guest ( Log In | Register )

> Farrore - The Emperor To The Dark Epoch (2017), Melodic Black Metal
post Oct 8 2017, 18:38:52
Post #1

Аннигилятор пивА
Group Icon
Group: V.I.P
Posts: 45,695
Releases: 13643
From: Koenigsberg - TILZIT
On Forums: 11 years 8 months
Thanks: 301930 time(s)
Russian Federation


(IMG:https://metalarea.org/images/audiocovers/2017_Oct/acov_tid295882_thumb.jpg)

*Artist: Farrore
*Album: The Emperor To The Dark Epoch
*Year: 2017
*Genre: Melodic Black Metal
*Country: Australia (IMG:https://metalarea.org/forum/style_images/flags/Australia.png)
*Format: mp3@CBR320kbps
*Size: 72MB

Tracklist:
1. Enter The Gates 02:15
2. The Elapse Of Sorrow 07:33
3. Emperor To The Dark Epoch 04:06
4. Færwyrd 04:52
5. From The Blackened Halls 01:05
6. Perpetual Darkness 05:05
7. Weltschmerz 06:35
******************************
Total playing time: 31:31




Extended info


Technical info
(IMG:https://metalarea.org/images/spectrogram/2017_Oct/863ea7a3dc644d159f7a28c62d35957d.png)
Input File: 03 - Emperor To The Dark Epoch.mp3
Channels : 2
Sample Rate : 44100
Precision : 16-bit
Duration : 00:04:06.41 = 10866813 samples = 18481 CDDA sectors
File Size : 9.86M
Bit Rate : 320k
Sample Encoding: MPEG audio (layer I, II or III)
Comments :
Title=Emperor To The Dark Epoch
Artist=Farrore
Album=The Emperor To The Dark Epoch
Tracknumber=3
Year=2017



Register


Вернуться к началу страницы
  Insert nick Quick quote
+Цитировать сообщение
 
Создать новую тему
Replies (1 - 3)
post Oct 10 2017, 16:58:28
Post #2

Восемь Литров
********
Group: Металариец
Posts: 825
Releases: 0
From: Dnipro
On Forums: 9 years 7 months
Thanks: 206 time(s)
Ukraine


Детский сад (IMG:style_emoticons/default/1488.gif) (IMG:style_emoticons/default/normal_Homerdisgust3s.png)
Вернуться к началу страницы
  Insert nick Quick quote
+Цитировать сообщение
post Oct 12 2017, 11:55:48
Post #3

Добрый язычник
********
Group: Металариец
Posts: 895
Releases: 10
From: Санкт-Петербург
On Forums: 12 years 2 months
Thanks: 227 time(s)
Russian Federation


QUOTE(isvili @ Oct 10 2017, 21:58:28) *

Как то да....
Вернуться к началу страницы
  Insert nick Quick quote
+Цитировать сообщение
post Oct 17 2017, 06:42:39
Post #4

Ъ
**************
Group: Металариец
Posts: 8,943
Releases: 9
On Forums: 9 years 1 month
Thanks: 1661 time(s)
Sweden


Гаражный релиз.
Вернуться к началу страницы
  Insert nick Quick quote
+Цитировать сообщение

ОтветитьСоздать новую тему
2 User(s) are reading this topic (2 Guests and 0 Anonymous Users)
0 Members:

 



- Lo-Fi Version Support form
Copyrights and abuse reports form
Time is now: 18th February 2018 - 04:26:14