Welcome Guest ( Log In | Register )

> Charlotte's Webb - Charlotte's Webb (1993), Thrash/Groove Metal/Hardcore
post Oct 8 2017, 20:15:53
Post #1
BAN
Banned till
Nov 9 2018, 22:14:17



(IMG:https://metalarea.org/images/audiocovers/2017_Oct/acov_tid295886_thumb.jpg)

*Artist: Charlotte's Webb
*Album: Charlotte's Webb [demo]
*Year: 1993
*Genre: Thrash/Groove Metal/Hardcore
*Country: United States (IMG:https://metalarea.org/forum/style_images/flags/United%20States.png)
*Format: mp3@CBR320kbps
*Size: 58MB

Tracklist:
01. Attain 2:17
02. Bastards & Bitches 2:48
03. The Going Home 3:19
04. Imperative 4:49
05. Quickie 0:23
06. My Saucy Game 3:44
07. S.O.S. 1:56
08. Darkness Blooms 2:30
09. Lust 2:11
10. Beckoning Graves 2:59
******************************
Total playing time: 26:56

Technical info
(IMG:https://metalarea.org/images/spectrogram/2017_Oct/3598ad6301af8851faf3baf59a1417e9.png)
Input File: 01. Attain.mp3
Channels : 2
Sample Rate : 44100
Precision : 16-bit
Duration : 00:02:17.18 = 6049682 samples = 10288.6 CDDA sectors
File Size : 5.49M
Bit Rate : 320k
Sample Encoding: MPEG audio (layer I, II or III)



Register


Go to the top of the page
  Insert nick Quick quote
+Quote Post
 
Start new topic
Replies (1 - 3)
post Oct 30 2017, 20:22:24
Post #2

Group: Подсевший
Posts: 10
Releases: 0
On Forums: 10 months 3 weeks
Thanks: 0 time(s)
Unknown


великолепно
Go to the top of the page
  Insert nick Quick quote
+Quote Post
post Dec 24 2017, 05:46:12
Post #3

Маньяк
**********
Group: Металариец
Posts: 1,403
Releases: 0
On Forums: 2 years 2 months
Thanks: 59 time(s)
United Kingdom


Please can you reup
Go to the top of the page
  Insert nick Quick quote
+Quote Post
post Dec 24 2017, 20:07:16
Post #4
BAN
Banned till
Nov 9 2018, 22:14:17



Register


Thanks:
Go to the top of the page
  Insert nick Quick quote
+Quote Post

Reply to this topicStart new topic
1 User(s) are reading this topic (1 Guests and 0 Anonymous Users)
0 Members:

 



- Lo-Fi Version Support form
Copyrights and abuse reports form
Time is now: 25th September 2018 - 03:58:24