Welcome Guest ( Log In | Register )

> Twitch - They Call This Protection? (1996), Thrash/Groove Metal (D4)
post Oct 8 2017, 23:36:22
Post #1

People = Shit
**************
Group: Металариец
Posts: 5,160
Releases: 414
From: Беларусь, Минск
On Forums: 5 years 5 months
Thanks: 5600 time(s)
Belarus


(IMG:https://metalarea.org/images/audiocovers/2017_Oct/acov_tid295890_thumb.jpg)

*Artist: Twitch
*Album: They Call This Protection? [demo]
*Year: 1996
*Genre: Thrash/Groove Metal
*Country: Canada (IMG:https://metalarea.org/forum/style_images/flags/Canada.png)
*Format: mp3@CBR320kbps
*Size: 53MB

Tracklist:
01. Sheepless 04:25
02. Four Words 04:42
03. Drive 02:42
04. Do You Feel Whole? 02:52
05. The Fun Things 03:15
06. 500 Miles 03:57
07. Moosedick 01:55
******************************
Total playing time: 23:48

Technical info
(IMG:https://metalarea.org/images/spectrogram/2017_Oct/163479f3e44fb4271608ec87fa31573d.png)
Input File: 4. Do You Feel Whole.mp3
Channels : 2
Sample Rate : 44100
Precision : 16-bit
Duration : 00:02:52.18 = 7592962 samples = 12913.2 CDDA sectors
File Size : 6.89M
Bit Rate : 320k
Sample Encoding: MPEG audio (layer I, II or III)



Register


Thanks:
Вернуться к началу страницы
  Insert nick Quick quote
+Цитировать сообщение
 
Создать новую тему
Replies (1 - 2)
post Oct 30 2017, 20:21:51
Post #2

Group: Подсевший
Posts: 10
Releases: 0
On Forums: 3 months 2 weeks
Thanks: 0 time(s)
Unknown


хорошо
Вернуться к началу страницы
  Insert nick Quick quote
+Цитировать сообщение
post Jan 5 2018, 15:41:17    Сейчас играет: Re-up needed
Post #3

Пять Литров
*****
Group: Металариец
Posts: 490
Releases: 74
From: SteelCity, Upper Austria
On Forums: 4 years 11 months
Thanks: 843 time(s)
Austria


yandex link timed out after 3 months?
Please re-up, thanks!
Вернуться к началу страницы
  Insert nick Quick quote
+Цитировать сообщение

ОтветитьСоздать новую тему
1 User(s) are reading this topic (1 Guests and 0 Anonymous Users)
0 Members:

 



- Lo-Fi Version Support form
Copyrights and abuse reports form
Time is now: 19th February 2018 - 18:59:14