Welcome Guest ( Log In | Register )

> И неформату есть предел.

Рэп/хип-хоп/шансон/поп удаляются. Для них есть свои порталы.

> Mammoth Mammoth - Mount The Mountain (2017), Stoner/Hard Rock (D4)
post Oct 9 2017, 00:24:38
Post #1

Попсовик от брутала
**************
Group: Металариец
Posts: 5,938
Releases: 56
From: Минск
On Forums: 9 years 6 months
Thanks: 4796 time(s)
Belarus


(IMG:http://metalarea.org/images/audiocovers/2017_Oct/acov_tid295891_thumb.jpg)

*Artist: Mammoth Mammoth
*Album: Mount The Mountain
*Year: 2017
*Genre: Stoner/Hard Rock
*Country: Australia (IMG:http://metalarea.org/forum/style_images/flags/Australia.png)
*Format: mp3@CBR320kbps
*Size: 93MB

Tracklist:
1. Mount the Mountain 06:28
2. Spellbound 03:34
3. Hole in the Head 04:30
4. Kickin' My Dog 03:56
5. Procrastination 03:36
6. Sleep Walker 03:33
7. Epitome 03:22
8. Hard Way Down 03:27
9. Wild and Dead 04:22
10. Cold Liquor 03:31
11. I Can't Get You Out of My Head 04:04
******************************
Total playing time: 44:23

Extended info



Technical info
(IMG:http://metalarea.org/images/spectrogram/2017_Oct/a6f3342d0f0c21334c00111d960d314e.png)
Input File: 07. Epitome.mp3
Channels : 2
Sample Rate : 44100
Precision : 16-bit
Duration : 00:03:22.24 = 8918608 samples = 15167.7 CDDA sectors
File Size : 8.13M
Bit Rate : 322k
Sample Encoding: MPEG audio (layer I, II or III)
Comments :
Title=Epitome
Artist=Mammoth Mammoth
Album=Mount the Mountain
Tracknumber=7
Year=2017
Genre=Rock
Discnumber=1



Register


Go to the top of the page
  Insert nick Quick quote
+Quote Post
 
Start new topic
Replies (1 - 2)
post Oct 10 2017, 20:52:22
Post #2

Шесть Литров
******
Group: Металариец
Posts: 619
Releases: 0
On Forums: 10 years 8 months
Thanks: 201 time(s)
Belarus


как обычно, отличные релизы проходят незамеченными. (IMG:style_emoticons/default/redp.gif)
Go to the top of the page
  Insert nick Quick quote
+Quote Post
post Oct 15 2017, 15:05:24
Post #3

Два Литра
**
Group: Завсегдатай
Posts: 143
Releases: 0
From: Kiev
On Forums: 9 years 5 months
Thanks: 34 time(s)
Ukraine


ЦИТАТА(gena @ Oct 10 2017, 22:52:22) *
как обычно, отличные релизы проходят незамеченными. (IMG:style_emoticons/default/redp.gif)
Тоже самое хотел сказать) Зато всякое гуано вовсю обсуждается (IMG:style_emoticons/default/normal_Homerdisgust3.png)


Thanks:
(1) Ghostb,
Go to the top of the page
  Insert nick Quick quote
+Quote Post

Reply to this topicStart new topic
1 User(s) are reading this topic (1 Guests and 0 Anonymous Users)
0 Members:

 



- Lo-Fi Version Support form
Copyrights and abuse reports form
Time is now: 22nd June 2018 - 10:22:33