Welcome Guest ( Log In | Register )

> Advent Sorrow - Pestilence Shall Come [single] (2017), Black Metal/Post-Metal/Hardcore (D5)
post Oct 9 2017, 10:26:13
Post #1

Три Литра
***
Group: Завсегдатай
Posts: 213
Releases: 17
On Forums: 8 years 3 weeks
Thanks: 330 time(s)
United States


(IMG:http://metalarea.org/images/audiocovers/2017_Oct/acov_tid295898_thumb.jpg)

*Artist: Advent Sorrow
*Album: Pestilence Shall Come [single]
*Year: 2017
*Genre: Black Metal/Post-Metal/Hardcore
*Country: Australia (IMG:http://metalarea.org/forum/style_images/flags/Australia.png)
*Format: mp3@CBR320kbps
*Size: 13MB

Tracklist:
1. Pestilence Shall Come 05:53
******************************
Total playing time: 5:53

Technical info
(IMG:http://metalarea.org/images/spectrogram/2017_Oct/25e31749e7197f0431295379b86f0dc1.png)
Input File: Advent Sorrow - Pestilence Shall Come.mp3
Channels : 2
Sample Rate : 44100
Precision : 16-bit
Duration : 00:05:53.31 = 15581103 samples = 26498.5 CDDA sectors
File Size : 14.2M
Bit Rate : 321k
Sample Encoding: MPEG audio (layer I, II or III)
Comments :
Title=Pestilence Shall Come
Artist=Advent Sorrow
Album=Pestilence Shall Come
Year=2017
Genre=Post-Black Metal



Register


Вернуться к началу страницы
  Insert nick Quick quote
+Цитировать сообщение
 
Создать новую тему
Replies (1 - 2)
post Oct 26 2017, 20:20:56
Post #2

Full-of-Hate
***********
Group: Металариец
Posts: 1,826
Releases: 0
On Forums: 8 years 7 months
Thanks: 1176 time(s)
Russian Federation


Advent Sorrow - Pestilence Shall Come (Official Music Video)
Годный трек. Такого крутого музона группа раньше не делала, топталась в симфе. Надеюсь, таким будет полноформат.
Вернуться к началу страницы
  Insert nick Quick quote
+Цитировать сообщение
post Oct 26 2017, 20:22:30
Post #3
BAN
RO till
Mar 3 2018, 11:16:17



Ну и стилевой замес.
Вернуться к началу страницы
  Insert nick Quick quote
+Цитировать сообщение

ОтветитьСоздать новую тему
1 User(s) are reading this topic (1 Guests and 0 Anonymous Users)
0 Members:

 



- Lo-Fi Version Support form
Copyrights and abuse reports form
Time is now: 24th February 2018 - 18:55:02