Welcome Guest ( Log In | Register )

> Jug - Direction (1996), Thrash/Groove Metal
post Oct 9 2017, 16:06:15
Post #1
BAN
Banned till
Jun 28 2018, 15:53:36



(IMG:https://metalarea.org/images/audiocovers/2017_Oct/acov_tid295923.jpg)

*Artist: Jug
*Album: Direction [ep]
*Year: 1996
*Genre: Thrash/Groove Metal
*Country: United Kingdom (IMG:https://metalarea.org/forum/style_images/flags/United%20Kingdom.png)
*Format: mp3@CBR320kbps
*Size: 61MB

Tracklist:
01. Direction 06:16
02. Burn Out 03:09
03. Slapshot 02:52
04. Footsteps 02:54
05. Crawl 03:42
06. Rejected 04:21
07. Dead Happy 03:52
******************************
Total playing time: 27:06

Technical info
(IMG:https://metalarea.org/images/spectrogram/2017_Oct/5f97f2fa131f00d87e35fdd9466cf11e.png)
Input File: 02 Burn Out.mp3
Channels : 2
Sample Rate : 44100
Precision : 16-bit
Duration : 00:03:09.12 = 8340236 samples = 14184.1 CDDA sectors
File Size : 7.57M
Bit Rate : 320k
Sample Encoding: MPEG audio (layer I, II or III)



Register


Go to the top of the page
  Insert nick Quick quote
+Quote Post
 
Start new topic
Replies (1 - 2)
post Oct 30 2017, 20:21:14
Post #2

Group: Подсевший
Posts: 10
Releases: 0
On Forums: 7 months 3 weeks
Thanks: 0 time(s)
Unknown


прекрасно
Go to the top of the page
  Insert nick Quick quote
+Quote Post
post Jan 5 2018, 15:40:54    Сейчас играет: Re-up needed
Post #3

Шесть Литров
******
Group: Металариец
Posts: 511
Releases: 74
From: SteelCity, Upper Austria
On Forums: 5 years 3 months
Thanks: 875 time(s)
Austria


yandex link timed out after 3 months?
Please re-up, thanks!
Go to the top of the page
  Insert nick Quick quote
+Quote Post

Reply to this topicStart new topic
1 User(s) are reading this topic (1 Guests and 0 Anonymous Users)
0 Members:

 



- Lo-Fi Version Support form
Copyrights and abuse reports form
Time is now: 23rd June 2018 - 16:51:10