Welcome Guest ( Log In | Register )

> Jug - Direction (1996), Thrash/Groove Metal
post Oct 9 2017, 16:06:15
Post #1

People = Shit
**************
Group: Металариец
Posts: 5,183
Releases: 414
From: Беларусь, Минск
On Forums: 5 years 5 months
Thanks: 5608 time(s)
Belarus


(IMG:https://metalarea.org/images/audiocovers/2017_Oct/acov_tid295923.jpg)

*Artist: Jug
*Album: Direction [ep]
*Year: 1996
*Genre: Thrash/Groove Metal
*Country: United Kingdom (IMG:https://metalarea.org/forum/style_images/flags/United%20Kingdom.png)
*Format: mp3@CBR320kbps
*Size: 61MB

Tracklist:
01. Direction 06:16
02. Burn Out 03:09
03. Slapshot 02:52
04. Footsteps 02:54
05. Crawl 03:42
06. Rejected 04:21
07. Dead Happy 03:52
******************************
Total playing time: 27:06

Technical info
(IMG:https://metalarea.org/images/spectrogram/2017_Oct/5f97f2fa131f00d87e35fdd9466cf11e.png)
Input File: 02 Burn Out.mp3
Channels : 2
Sample Rate : 44100
Precision : 16-bit
Duration : 00:03:09.12 = 8340236 samples = 14184.1 CDDA sectors
File Size : 7.57M
Bit Rate : 320k
Sample Encoding: MPEG audio (layer I, II or III)



Register


Вернуться к началу страницы
  Insert nick Quick quote
+Цитировать сообщение
 
Создать новую тему
Replies (1 - 2)
post Oct 30 2017, 20:21:14
Post #2

Group: Подсевший
Posts: 10
Releases: 0
On Forums: 3 months 3 weeks
Thanks: 0 time(s)
Unknown


прекрасно
Вернуться к началу страницы
  Insert nick Quick quote
+Цитировать сообщение
post Jan 5 2018, 15:40:54    Сейчас играет: Re-up needed
Post #3

Пять Литров
*****
Group: Металариец
Posts: 490
Releases: 74
From: SteelCity, Upper Austria
On Forums: 4 years 11 months
Thanks: 843 time(s)
Austria


yandex link timed out after 3 months?
Please re-up, thanks!
Вернуться к началу страницы
  Insert nick Quick quote
+Цитировать сообщение

ОтветитьСоздать новую тему
2 User(s) are reading this topic (2 Guests and 0 Anonymous Users)
0 Members:

 



- Lo-Fi Version Support form
Copyrights and abuse reports form
Time is now: 20th February 2018 - 10:23:07