Welcome Guest ( Log In | Register )

> Baneful Storm - Invocations [ep] (2017), Old School Death Metal
post Oct 9 2017, 17:32:46
Post #1

Satan Soldier
**************
Group: Металариец
Posts: 2,240
Releases: 605
From: IN HELL
On Forums: 5 years 1 month
Thanks: 12725 time(s)
France


(IMG:http://metalarea.org/images/audiocovers/2017_Oct/acov_tid295926_thumb.jpg)

*Artist: Baneful Storm
*Album: Invocations [ep]
*Year: 2017
*Genre: Old School Death Metal
*Country: France (IMG:http://metalarea.org/forum/style_images/flags/France.png)
*Format: mp3@CBR320kbps
*Size: 41MB

Tracklist:
1.Sang 00:47
2.Baneful Storm 03:35
3.Thushazotho 03:28
4.Damned to Fire 03:05
5.Blasphemy 04:36
6.Sulphur 02:04
******************************
Total playing time: 17:35




Technical info
(IMG:http://metalarea.org/images/spectrogram/2017_Oct/0227eedf1954891f647458cce746dbdc.png)
Input File: 02 Baneful Storm.mp3
Channels : 2
Sample Rate : 44100
Precision : 16-bit
Duration : 00:03:35.24 = 9492216 samples = 16143.2 CDDA sectors
File Size : 8.65M
Bit Rate : 321k
Sample Encoding: MPEG audio (layer I, II or III)
Comments :
Title=Baneful Storm
Artist=Baneful Storm
Album=Invocations (EP)
Tracknumber=2
Year=2017-10-06
Genre=22
Discnumber=1



Register


Вернуться к началу страницы
  Insert nick Quick quote
+Цитировать сообщение
 
Создать новую тему
Replies (1 - 2)
post Oct 12 2017, 15:56:02
Post #2

Три Литра
***
Group: Завсегдатай
Posts: 245
Releases: 0
On Forums: 7 years 5 months
Thanks: 38 time(s)
Russian Federation


интересная банда, но уж многое напоминает
Вернуться к началу страницы
  Insert nick Quick quote
+Цитировать сообщение
post Nov 18 2017, 21:20:28
Post #3

rastapopoulos
**********
Group: Металариец
Posts: 1,445
Releases: 0
On Forums: 9 years 11 months
Thanks: 505 time(s)
Cameroon


the music that we wishes Morbid Angel still play nowadays.


Thanks:
(1) Samogon,
Вернуться к началу страницы
  Insert nick Quick quote
+Цитировать сообщение

ОтветитьСоздать новую тему
2 User(s) are reading this topic (2 Guests and 0 Anonymous Users)
0 Members:

 



- Lo-Fi Version Support form
Copyrights and abuse reports form
Time is now: 18th February 2018 - 04:27:06