Welcome Guest ( Log In | Register )

> Правила / Rules

Тут только для чтения лежат низкобитрейтные (<192kbps) релизы, для которых есть аналоги в высокобитрейтных форумах.

Here goes (and stand in read only mode) low bitrate releases (<192kbps) which were already replaced by high bitrate releases in corresponding forums.

> Psython - Hatred (2017), Progressive Thrash Metal (D4)
post Oct 9 2017, 18:48:16
Post #1

Аннигилятор пивА
Group Icon
Group: V.I.P
Posts: 45,736
Releases: 13651
From: Koenigsberg - TILZIT
On Forums: 11 years 8 months
Thanks: 302134 time(s)
Russian Federation


(IMG:https://metalarea.org/images/audiocovers/2017_Oct/acov_tid295928_thumb.jpg)

*Artist: Psython
*Album: Hatred
*Year: 2017
*Genre: Progressive Thrash Metal
*Country: United Kingdom (IMG:https://metalarea.org/forum/style_images/flags/United%20Kingdom.png)
*Format: mp3@CBR320kbps
*Size: 99MB

Tracklist:
1. Jörmungandr 05:29
2. Battery Life 03:14
3. Teeth 03:31
4. H.A.T.E. 04:41
5. Chai Latte 03:40
6. Ten Pounds 03:33
7. One in Deed 04:58
8. Hashtrap 04:08
9. Old Man 09:40
******************************
Total playing time: 42:54




Extended info
Luke Rodgers - Guitars (ex-Septic Fatality)
Will Price - Guitars (Myth of a Life, ex-Septic Fatality)
Bing - Vocals (lead)
Duayne Carpenter - Bass (ex-Deformation of Man)
Nick Robinson - Drums (ex-Septic Fatality)


Technical info
(IMG:https://metalarea.org/images/spectrogram/2017_Oct/48eb3c087f65b7ef66a22fba7ed6c6ed.png)
Input File: 04 H.A.T.E..mp3
Channels : 2
Sample Rate : 44100
Precision : 16-bit
Duration : 00:04:43.33 = 12495029 samples = 21250 CDDA sectors
File Size : 11.5M
Bit Rate : 324k
Sample Encoding: MPEG audio (layer I, II or III)
Comments :
Title=H.A.T.E.
Artist=Psython
Album=Hatred
Tracknumber=4
Year=2017
Genre=Thrash Metal



Register


Thanks:
Вернуться к началу страницы
  Insert nick Quick quote
+Цитировать сообщение
 
Создать новую тему
Replies (1 - 5)
post Oct 10 2017, 02:17:09
Post #2

Два Литра
**
Group: Завсегдатай
Posts: 122
Releases: 0
From: Россия
On Forums: 6 years 1 week
Thanks: 35 time(s)
Russian Federation


Транскод с бк из 128
Вернуться к началу страницы
  Insert nick Quick quote
+Цитировать сообщение
post Oct 10 2017, 12:02:48
Post #3

Join my religion, or die
**************
Group: Металариец
Posts: 9,391
Releases: 1124
From: Питера
On Forums: 8 years 4 months
Thanks: 15259 time(s)
Russian Federation


Вернуться к началу страницы
  Insert nick Quick quote
+Цитировать сообщение
post Oct 10 2017, 17:27:47
Post #4

Правь статус, ####!111
**************
Group: Металариец
Posts: 12,193
Releases: 8808
From: Г.Харьков
On Forums: 5 years 9 months
Thanks: 141037 time(s)
Unknown


а что-можно уже даже не указывать что типа альбом в лоу или транскод с кампа?
Вернуться к началу страницы
  Insert nick Quick quote
+Цитировать сообщение
post Oct 11 2017, 06:25:35
Post #5

hearer & reader
**************
Group: Металариец
Posts: 5,983
Releases: 78
From: Moscow
On Forums: 10 years 5 months
Thanks: 6218 time(s)
Russian Federation


Хороший трэшняк. Но оба их альбома пока лучше слушать просто на BC...
Вернуться к началу страницы
  Insert nick Quick quote
+Цитировать сообщение
post Oct 11 2017, 11:21:14
Post #6

Аполітичний
**************
Group: Металариец
Posts: 4,953
Releases: 143
From: Тимчасово окупована територія - Юзівка
On Forums: 9 years 6 months
Thanks: 5177 time(s)
Ukraine


Неплохо. Нужно дождаться качества...
Вернуться к началу страницы
  Insert nick Quick quote
+Цитировать сообщение

Причина закрытия (DarkHorde 16-10-2017): Psython - Hatred (2017)
Тема закрытаСоздать новую тему
2 User(s) are reading this topic (2 Guests and 0 Anonymous Users)
0 Members:

 



- Lo-Fi Version Support form
Copyrights and abuse reports form
Time is now: 20th February 2018 - 10:20:29