Welcome Guest ( Log In | Register )

> Requiem - My Fear Is Naked (1995), Thrash/Groove Metal (D)
post Oct 10 2017, 16:45:23
Post #1
BAN
Banned till
Nov 9 2018, 22:14:17



(IMG:https://metalarea.org/images/audiocovers/2017_Oct/acov_tid295964_thumb.jpg)

*Artist: Requiem
*Album: My Fear Is Naked
*Year: 1995
*Genre: Thrash/Groove Metal
*Country: Chile (IMG:https://metalarea.org/forum/style_images/flags/Chile.png)
*Format: mp3@CBR320kbps
*Size: 97MB

Tracklist:
01. Self Brainwash 3:40
02. Under My Flag 2:46
03. Terminal Experience 4:40
04. Karolinawaltz 1:25
05. Taste The Decadence 5:14
06. I'm What I Am 4:25
07. Nihilist Crisis Prove 4:25
08. Piranha (Exodus Cover) 3:39
09. Hard Bones 4:48
10. Smothered 4:07
11. We're Gonna Die 3:41
******************************
Total playing time: 42:50

Technical info
(IMG:https://metalarea.org/images/spectrogram/2017_Oct/3f454aae5c2e8611951e0a5ced190748.png)
Input File: 02-Under my flag.mp3
Channels : 2
Sample Rate : 44100
Precision : 16-bit
Duration : 00:02:46.91 = 7360775 samples = 12518.3 CDDA sectors
File Size : 6.68M
Bit Rate : 320k
Sample Encoding: MPEG audio (layer I, II or III)
Comments :
Title=Under my flag
Artist=Requiem
Album=My Fear Is Naked
Tracknumber=2
Year=1995
Genre=Other



Register


Go to the top of the page
  Insert nick Quick quote
+Quote Post
 
Start new topic
Replies (1 - 2)
post Oct 30 2017, 20:20:21
Post #2

Group: Подсевший
Posts: 10
Releases: 0
On Forums: 10 months 3 weeks
Thanks: 0 time(s)
Unknown


восхитит
Go to the top of the page
  Insert nick Quick quote
+Quote Post
post Feb 7 2018, 03:27:58
Post #3

Group: Дух
Posts: 3
Releases: 0
On Forums: 8 years 1 month
Thanks: 0 time(s)
Unknown


Re-up, please.
Go to the top of the page
  Insert nick Quick quote
+Quote Post

Reply to this topicStart new topic
1 User(s) are reading this topic (1 Guests and 0 Anonymous Users)
0 Members:

 



- Lo-Fi Version Support form
Copyrights and abuse reports form
Time is now: 25th September 2018 - 17:38:36