Welcome Guest ( Log In | Register )

> Brutal Thin - Matanza Nacional (1996), Thrash/Groove Metal
post Oct 10 2017, 16:53:16
Post #1
BAN
Banned till
Jun 28 2018, 15:53:36



(IMG:https://metalarea.org/images/audiocovers/2017_Oct/acov_tid295965_thumb.jpg)

*Artist: Brutal Thin
*Album: Matanza Nacional
*Year: 1996
*Genre: Thrash/Groove Metal
*Country: Spain (IMG:https://metalarea.org/forum/style_images/flags/Spain.png)
*Format: mp3@CBR320kbps
*Size: 64MB

Tracklist:
01. Dead Nature 5:22
02. Joy Finished 4:02
03. (Understandable Words) Depresion 5:57
04. Secrets Kept In My Mind That I Can’t Feel 5:18
05. Matanza Nacional 3:14
06. All-Mighty Money 4:19
07. Nubes De Muerte 3:14
******************************
Total playing time: 31:26

Technical info
(IMG:https://metalarea.org/images/spectrogram/2017_Oct/065f8df7d032eee9d96891409e477efd.png)
Input File: 02-Joy Finished.mp3
Channels : 2
Sample Rate : 44100
Precision : 16-bit
Duration : 00:04:02.70 = 10703070 samples = 18202.5 CDDA sectors
File Size : 9.71M
Bit Rate : 320k
Sample Encoding: MPEG audio (layer I, II or III)



Register


Go to the top of the page
  Insert nick Quick quote
+Quote Post
 
Start new topic
Replies (1 - 1)
post Oct 30 2017, 20:19:39
Post #2

Group: Подсевший
Posts: 10
Releases: 0
On Forums: 7 months 3 weeks
Thanks: 0 time(s)
Unknown


отлично
Go to the top of the page
  Insert nick Quick quote
+Quote Post

Reply to this topicStart new topic
1 User(s) are reading this topic (1 Guests and 0 Anonymous Users)
0 Members:

 



- Lo-Fi Version Support form
Copyrights and abuse reports form
Time is now: 23rd June 2018 - 16:38:50