Welcome Guest ( Log In | Register )

 
Reply to this topicStart new topic
> Brutal Thin - Tercera Comunión (1999), Thrash/Groove Metal
post Oct 10 2017, 17:05:30
Post #1
BAN
Banned till
Jun 28 2018, 15:53:36



(IMG:https://metalarea.org/images/audiocovers/2017_Oct/acov_tid295968_thumb.jpg)

*Artist: Brutal Thin
*Album: Tercera Comunión
*Year: 1999
*Genre: Thrash/Groove Metal
*Country: Spain (IMG:https://metalarea.org/forum/style_images/flags/Spain.png)
*Format: mp3@CBR320kbps
*Size: 109MB

Tracklist:
01. Lacra 4:17
02. He Visto La Luz 3:47
03. Roto 5:25
04. Luna 3:09
05. La Cancion Del Carcelero 4:13
06. Tamayonqui 2:34
07. Tinto 3:01
08. En Bocas Cerradas No Entran Balas (C.S.S.) 4:19
09. El Dictador 4:42
10. Inanicion 2:59
11. A Peor/Pompo 9:40
******************************
Total playing time: 48:06

Technical info
(IMG:https://metalarea.org/images/spectrogram/2017_Oct/dab8b2d2136d9b6bf058740ecab1940b.png)
Input File: 04-Luna.mp3
Channels : 2
Sample Rate : 44100
Precision : 16-bit
Duration : 00:03:11.99 = 8466803 samples = 14399.3 CDDA sectors
File Size : 7.68M
Bit Rate : 320k
Sample Encoding: MPEG audio (layer I, II or III)
Comments :
Title=Luna
Artist=Brutal Thin
Album=Tercera ComuniГіn
Tracknumber=4
Year=1999
Genre=Other



Register


Go to the top of the page
  Insert nick Quick quote
+Quote Post

Reply to this topicStart new topic
1 User(s) are reading this topic (1 Guests and 0 Anonymous Users)
0 Members:

 



- Lo-Fi Version Support form
Copyrights and abuse reports form
Time is now: 23rd June 2018 - 16:53:16