Welcome Guest ( Log In | Register )

 
Reply to this topicStart new topic
> Brutal Thin - Nuevo Catalogo Sobre Demonologia Moderna (2005), Thrash/Groove Metal
post Oct 10 2017, 17:30:19
Post #1
BAN
Banned till
Jun 28 2018, 15:53:36



(IMG:https://metalarea.org/images/audiocovers/2017_Oct/acov_tid295969_thumb.jpg)

*Artist: Brutal Thin
*Album: Nuevo Catalogo Sobre Demonologia Moderna
*Year: 2005
*Genre: Thrash/Groove Metal
*Country: Spain (IMG:https://metalarea.org/forum/style_images/flags/Spain.png)
*Format: mp3@CBR320kbps
*Size: 89MB

Tracklist:
01. Dentro Del Motor De Un Superdios Generador 4:23
02. Consecuentemente 4:59
03. Nunca Iremos Al Cielo 1:37
04. Fauno 04:31
05. El Que Nunca Descansa 3:33
06. Se 6:06
07. 15 dias 1:35
08. El Contrario 4:34
09. 33 4:35
10. Eva Y Satan 3:27
******************************
Total playing time: 39:20

Technical info
(IMG:https://metalarea.org/images/spectrogram/2017_Oct/6d9bb91192839e676491bc61137a0c6e.png)
Input File: 01-Dentro del motor de un superdios generador.mp3
Channels : 2
Sample Rate : 44100
Precision : 16-bit
Duration : 00:04:23.91 = 11638563 samples = 19793.5 CDDA sectors
File Size : 10.6M
Bit Rate : 320k
Sample Encoding: MPEG audio (layer I, II or III)
Comments :
Title=Dentro del motor de un superdi
Artist=Brutal Thin
Album=Nuevo Catalogo Sobre Demonolog
Tracknumber=1
Year=2005
Genre=Other



Register


Go to the top of the page
  Insert nick Quick quote
+Quote Post

Reply to this topicStart new topic
1 User(s) are reading this topic (1 Guests and 0 Anonymous Users)
0 Members:

 



- Lo-Fi Version Support form
Copyrights and abuse reports form
Time is now: 23rd June 2018 - 16:40:38