Welcome Guest ( Log In | Register )

> Brutal Thin - No Mereces Un Castigo Para Aprender (2013), Thrash/Groove Metal
post Oct 10 2017, 17:38:43
Post #1
BAN
Banned till
Jun 28 2018, 15:53:36



(IMG:https://metalarea.org/images/audiocovers/2017_Oct/acov_tid295970_thumb.jpg)

*Artist: Brutal Thin
*Album: No Mereces Un Castigo Para Aprender
*Year: 2013
*Genre: Thrash/Groove Metal
*Country: Spain (IMG:https://metalarea.org/forum/style_images/flags/Spain.png)
*Format: mp3@CBR320kbps
*Size: 98MB

Tracklist:
01. Como Un Castigo 0:48
02. Vas A Infringir El Orden 3:21
03. Dejame Sangrar 3:04
04. Osado 3:54
05. Nuestro Fuego 3:26
06. Manifestar El Horror 3:53
07. Oscuro Despertar 1:58
08. Bien Jodidos 2:52
09. Dispuesto A Luchar 3:46
10. Deshumanizacion 4:54
11. Los Roqueros Van Al Infierno 3:46
12. Una Herramienta Eficaz 3:38
13. Malos Tiempos 4:03
******************************
Total playing time: 43:23

Technical info
(IMG:https://metalarea.org/images/spectrogram/2017_Oct/a6bf8e6e7ba028e9bc644d9f96324636.png)
Input File: 02-Vas a infringir el orden.mp3
Channels : 2
Sample Rate : 44100
Precision : 16-bit
Duration : 00:03:21.27 = 8875831 samples = 15095 CDDA sectors
File Size : 8.05M
Bit Rate : 320k
Sample Encoding: MPEG audio (layer I, II or III)
Comments :
Title=Vas a infringir el orden
Artist=Brutal Thin
Album=No Mereces Un Castigo Para Apr
Tracknumber=2
Year=2013
Genre=Other



Register


Go to the top of the page
  Insert nick Quick quote
+Quote Post
 
Start new topic
Replies (1 - 1)
post Oct 30 2017, 20:18:37
Post #2

Group: Подсевший
Posts: 10
Releases: 0
On Forums: 7 months 2 weeks
Thanks: 0 time(s)
Unknown


хорошо
Go to the top of the page
  Insert nick Quick quote
+Quote Post

Reply to this topicStart new topic
1 User(s) are reading this topic (1 Guests and 0 Anonymous Users)
0 Members:

 



- Lo-Fi Version Support form
Copyrights and abuse reports form
Time is now: 19th June 2018 - 07:57:15