Welcome Guest ( Log In | Register )

> И неформату есть предел.

Рэп/хип-хоп/шансон/поп удаляются. Для них есть свои порталы.

 
ОтветитьСоздать новую тему
> Phantom 5 - Phantom 5 (2016), Melodic Hard Rock
post Oct 10 2017, 22:15:11
Post #1

Два Литра
**
Group: Завсегдатай
Posts: 199
Releases: 3
On Forums: 10 years 10 months
Thanks: 159 time(s)
Russian Federation


(IMG:https://metalarea.org/images/audiocovers/2017_Oct/acov_tid295973_thumb.jpg)

*Artist: Phantom 5
*Album: Phantom 5
*Year: 2016
*Genre: Melodic Hard Rock
*Country: Germany (IMG:https://metalarea.org/forum/style_images/flags/Germany.png)
*Format: mp3@CBR320kbps
*Size: 110MB

Tracklist:
01. All The Way
02. Blue Dog
03. Someday
04. Don't Touch The Night
05. Renegade
06. Flying High
07. Since You're Gone
08. They Won't Come Back
09. Frontline
10. We Both Had Our Time
11. Why
12. Sing Along (Bonus Track)
******************************
Total playing time: 52:15

(IMG:https://metalarea.org/images/youtube.png)

Extended info
Claus Lessmann (Bonfire) - Lead Vocals
Michael Voss (Casanova, Bonfire, Mad Max, Michael Schenker) - Guitars and Vocals
Robby Boebel (Frontline) - Guitars
Francis Buchholz (Scorpions) - Bass
Axel Kruse (Jaded Heart) - Drums


Technical info
(IMG:https://metalarea.org/images/spectrogram/2017_Oct/85c4974a4c2a78c29d88b6ea4109c1dc.png)
Input File: 03 Someday.mp3
Channels : 2
Sample Rate : 44100
Precision : 16-bit
Duration : 00:03:51.78 = 10221630 samples = 17383.7 CDDA sectors
File Size : 9.30M
Bit Rate : 321k
Sample Encoding: MPEG audio (layer I, II or III)
Comments :
Title=Someday
Artist=Phantom 5
Album=Phantom 5
Tracknumber=3/12
Year=2016



Register


Thanks:
Вернуться к началу страницы
  Insert nick Quick quote
+Цитировать сообщение

ОтветитьСоздать новую тему
1 User(s) are reading this topic (1 Guests and 0 Anonymous Users)
0 Members:

 



- Lo-Fi Version Support form
Copyrights and abuse reports form
Time is now: 19th February 2018 - 20:45:27