Welcome Guest ( Log In | Register )

> И неформату есть предел.

Рэп/хип-хоп/шансон/поп удаляются. Для них есть свои порталы.

> My Sleeping Karma - Mela Ananda [live] (2017), Progressive/Psychedelic/Space Rock (D6)
post Oct 11 2017, 10:03:10
Post #1

Два Литра
**
Group: Завсегдатай
Posts: 170
Releases: 62
From: Helvetia
On Forums: 5 years 2 weeks
Thanks: 991 time(s)
Switzerland


(IMG:https://metalarea.org/images/audiocovers/2017_Oct/acov_tid295982_thumb.jpg)

*Artist: My Sleeping Karma
*Album: Mela Ananda [live]
*Year: 2017
*Genre: Progressive/Psychedelic/Space Rock
*Country: Germany (IMG:https://metalarea.org/forum/style_images/flags/Germany.png)
*Format: mp3@CBR320kbps
*Size: 162MB

Tracklist:
1 Prithvi 6:43
2 Enigma42 6:49
3 Glow11 7:46
4 Ephedra 6:42
5 Vayu 5:07
6 Akasha 6:44
7 Brahama 8:12
8 Psilocybe 8:24
9 Tamas 5:46
10 Hymn72 6:35
******************************
Total playing time: 1:08:48


(IMG:https://metalarea.org/images/myspace.png)
(IMG:https://metalarea.org/images/youtube.png)

Extended info
Recorded by Marco Naumann during Up In Smoke Tour Vol.6 in February 2016
Recording locations Paris (Divan Du Monde), Antwerpen (Trix) and Stuttgart (Universum)
Mixed and produced by Steffen at Mjusix Studio Aschaffenburg
Mastered by Andreas Balaskas at Masterlab Studio Berlin (masterlab-online.de)
Coverartwork and Layout by Sebastian Jerke (www.sebastianjerke.de)


Technical info
(IMG:https://metalarea.org/images/spectrogram/2017_Oct/ddd633d01eb8bcca671358230c585b11.png)
Input File: 5 Vayu.mp3
Channels : 2
Sample Rate : 44100
Precision : 16-bit
Duration : 00:05:05.92 = 13491160 samples = 22944.1 CDDA sectors
File Size : 12.7M
Bit Rate : 333k
Sample Encoding: MPEG audio (layer I, II or III)
Comments :
Title=Vayu
Artist=My Sleeping Karma
Album=Mela Ananda (Live)
Tracknumber=5
Year=2017
Discnumber=1/1



Register


Вернуться к началу страницы
  Insert nick Quick quote
+Цитировать сообщение
 
Создать новую тему
Replies (1 - 1)
post Oct 11 2017, 15:59:29
Post #2

Четыре Литра
****
Group: Металариец
Posts: 352
Releases: 0
From: Харьков
On Forums: 8 years 4 months
Thanks: 93 time(s)
Ukraine


Облога как всегда хороша.
Вернуться к началу страницы
  Insert nick Quick quote
+Цитировать сообщение

ОтветитьСоздать новую тему
1 User(s) are reading this topic (1 Guests and 0 Anonymous Users)
0 Members:

 



- Lo-Fi Version Support form
Copyrights and abuse reports form
Time is now: 19th February 2018 - 20:37:44