Welcome Guest ( Log In | Register )

 
ОтветитьСоздать новую тему
> Chrysilia - Et In Arcadia Ego (2017), Symphonic/Folk Metal
post Oct 11 2017, 13:12:54
Post #1

Serial Uploader
Group Icon
Group: V.I.P
Posts: 31,468
Releases: 29800
From: Lithuania
On Forums: 9 years 8 months
Thanks: 342142 time(s)
Lithuania


(IMG:http://metalarea.org/images/audiocovers/2017_Oct/acov_tid295992_thumb.jpg)

*Artist: Chrysilia
*Album: Et In Arcadia Ego
*Year: 2017
*Genre: Symphonic/Folk Metal
*Country: Greece (IMG:http://metalarea.org/forum/style_images/flags/Greece.png)
*Format: mp3@CBR320kbps
*Size: 124MB

Tracklist:
01. By The Gates Of Ypsus
02. The Menalon Trail
03. Desperate Wings
04. Arcadia
05. Et In Arcadia Ego
06. Chrysilia
07. Altar Of Silence
08. King Of A Stellar War
09. The Fifth Season
10. Desperate Wings (Orchestral Version)
******************************
Total playing time: 53:39

Technical info
(IMG:http://metalarea.org/images/spectrogram/2017_Oct/7175c575c0598ed0a39d1cb9f5dd4d3f.png)
Input File: 02 - The Menalon Trail.mp3
Channels : 2
Sample Rate : 44100
Precision : 16-bit
Duration : 00:04:49.20 = 12753896 samples = 21690.3 CDDA sectors
File Size : 11.7M
Bit Rate : 324k
Sample Encoding: MPEG audio (layer I, II or III)
Comments :
Title=The Menalon Trail
Artist=Chrysilia
Album=Et in Arcadia Ego
Tracknumber=2/10
Year=2017



Register


Вернуться к началу страницы
  Insert nick Quick quote
+Цитировать сообщение

ОтветитьСоздать новую тему
1 User(s) are reading this topic (1 Guests and 0 Anonymous Users)
0 Members:

 



- Lo-Fi Version Support form
Copyrights and abuse reports form
Time is now: 24th February 2018 - 02:59:42