Welcome Guest ( Log In | Register )

> Velocidad 22 - Culto Al Acero (2017), Heavy Metal
post Oct 11 2017, 14:45:28
Post #1

Serial Uploader
Group Icon
Group: V.I.P
Posts: 32,712
Releases: 31010
From: Lithuania
On Forums: 10 years 1 week
Thanks: 355620 time(s)
Lithuania


(IMG:http://metalarea.org/images/audiocovers/2017_Oct/acov_tid295996_thumb.jpg)

*Artist: Velocidad 22
*Album: Culto Al Acero
*Year: 2017
*Genre: Heavy Metal
*Country: Argentina (IMG:http://metalarea.org/forum/style_images/flags/Argentina.png)
*Format: mp3@CBR320kbps
*Size: 92MB

Tracklist:
01. La Venganza De Las Huestes 03:20
02. Culto Al Acero 03:52
03. Ojos Del Mal 04:22
04. Metal Club 04:12
05. Ciego En La Banda 04:57
06. M.D.C. 03:37
07. La Humanidad Debe Ser Destruida 03:02
08. Telesitiados 04:28
09. Alas Metalizadas 03:34
10. Inquisidores De Las Mentes 04:28
******************************
Total playing time: 39:52

(IMG:http://metalarea.org/images/myspace.png)



(IMG:http://metalarea.org/images/youtube.png)

Technical info
(IMG:http://metalarea.org/images/spectrogram/2017_Oct/1d8946fd6aa783d1dfd9d82de8ceac5c.png)
Input File: 09 - Alas Metalizadas.mp3
Channels : 2
Sample Rate : 44100
Precision : 16-bit
Duration : 00:03:34.34 = 9452526 samples = 16075.7 CDDA sectors
File Size : 8.72M
Bit Rate : 326k
Sample Encoding: MPEG audio (layer I, II or III)
Comments :
Title=Alas Metalizadas
Artist=Velocidad 22
Album=Culto al Acero
Tracknumber=9/10
Year=2017



Register


Thanks:
Go to the top of the page
  Insert nick Quick quote
+Quote Post
 
Start new topic
Replies (1 - 3)
post Oct 11 2017, 16:29:12
Post #2

Два Литра
**
Group: Завсегдатай
Posts: 138
Releases: 0
From: Россия
On Forums: 6 years 4 months
Thanks: 45 time(s)
Russian Federation


У тебя уже похоже крышак едет от всех переливов (IMG:style_emoticons/default/1488.gif) Страна Аргентина
Go to the top of the page
  Insert nick Quick quote
+Quote Post
post Oct 12 2017, 11:08:36
Post #3

Serial Uploader
Group Icon
Group: V.I.P
Posts: 32,712
Releases: 31010
From: Lithuania
On Forums: 10 years 1 week
Thanks: 355620 time(s)
Lithuania


QUOTE(Kehl05 @ Oct 11 2017, 18:29:12) *
У тебя уже похоже крышак едет от всех переливов (IMG:style_emoticons/default/1488.gif) Страна Аргентина


Исправлено! (IMG:style_emoticons/default/smile3.gif)
Go to the top of the page
  Insert nick Quick quote
+Quote Post
post Dec 24 2017, 19:50:42
Post #4

Наливай!
**************
Group: Металариец
Posts: 5,021
Releases: 27
From: Москва-Бибирево
On Forums: 10 years 3 months
Thanks: 2328 time(s)
Russian Federation


Чо со звуком?. С диктофона что ли запись?.
Go to the top of the page
  Insert nick Quick quote
+Quote Post

Reply to this topicStart new topic
1 User(s) are reading this topic (1 Guests and 0 Anonymous Users)
0 Members:

 



- Lo-Fi Version Support form
Copyrights and abuse reports form
Time is now: 19th June 2018 - 07:57:28