Welcome Guest ( Log In | Register )

> Moon Mother - Riffcraft [ep] (2017), Stoner/Doom Metal
post Oct 11 2017, 20:30:37
Post #1

Кожаный ублюдок
**************
Group: Металариец
Posts: 2,782
Releases: 6
From: Алчевск (early) Некросибирск (now)
On Forums: 8 years 9 months
Thanks: 1537 time(s)
Russian Federation


(IMG:https://metalarea.org/images/audiocovers/2017_Oct/acov_tid296009_thumb.jpg)

*Artist: Moon Mother
*Album: Riffcraft [ep]
*Year: 2017
*Genre: Stoner/Doom Metal
*Country: Sweden (IMG:https://metalarea.org/forum/style_images/flags/Sweden.png)
*Format: mp3@CBR320kbps
*Size: 67MB

Tracklist:
1. Vast Blues 7:39
2. Black Hole Demons 5:45
3. Mountain Of Lies 4:46
4. The Wizards Of Earth 7:54
******************************
Total playing time: 26:04




Extended info
Vocals: Sara Trollpacka
Guitar: Pat Ahlström
Drums: Jesper Wallin
Bass: Thomas V Jäger


Technical info
(IMG:https://metalarea.org/images/spectrogram/2017_Oct/b62ce4e2951ecf75b0ede45fe650a983.png)
Input File: 01 Vast Blues.mp3
Channels : 2
Sample Rate : 44100
Precision : 16-bit
Duration : 00:07:39.51 = 20264391 samples = 34463.2 CDDA sectors
File Size : 18.5M
Bit Rate : 323k
Sample Encoding: MPEG audio (layer I, II or III)
Comments :
Title=Vast Blues
Artist=Moon Mother
Album=Riffcraft [EP]
Tracknumber=1
Year=2017



Register


Вернуться к началу страницы
  Insert nick Quick quote
+Цитировать сообщение
 
Создать новую тему
Replies (1 - 1)
post Oct 13 2017, 06:12:13
Post #2

Кожаный ублюдок
**************
Group: Металариец
Posts: 2,782
Releases: 6
From: Алчевск (early) Некросибирск (now)
On Forums: 8 years 9 months
Thanks: 1537 time(s)
Russian Federation


Помимо данного миньона у шведского квартета Moon Mother есть еще демо, а вот полноформатов не завезли, поэтому будем довольствоваться малым, т.е. тем, что есть. А есть у нас довольно приличный материал, основа которого состоит из блюза, но это все завернуто настолько плотно в жир стоунер/дума, что аж дух захватывает. Звучит психоделично еще во многом благодаря замечательной Sara Trollpacka, хотя вроде как в плане самого по себе вокала ничего выдающегося я не обнаружил. Но благодаря остальным участникам квартета и хорошо наруленному звуку миник пролетает на одном дыхании.
В общем дебют, если эти 26 минут можно считать таковыми, заходит на ура. Я жду не менее угарного полноформата! (IMG:style_emoticons/default/9.gif) (IMG:style_emoticons/default/9.gif) (IMG:style_emoticons/default/9.gif)


Вернуться к началу страницы
  Insert nick Quick quote
+Цитировать сообщение

ОтветитьСоздать новую тему
2 User(s) are reading this topic (2 Guests and 0 Anonymous Users)
0 Members:

 



- Lo-Fi Version Support form
Copyrights and abuse reports form
Time is now: 23rd February 2018 - 20:58:33