Welcome Guest ( Log In | Register )

> И неформату есть предел.

Рэп/хип-хоп/шансон/поп удаляются. Для них есть свои порталы.

 
Reply to this topicStart new topic
> Nhor - Wildflowers: Spring (2017), Neoclassical Ambient (D7)
post Oct 11 2017, 20:55:17
Post #1

Литр
*
Group: Подсевший
Posts: 81
Releases: 45
On Forums: 5 years 9 months
Thanks: 1032 time(s)
Unknown


(IMG:http://metalarea.org/images/audiocovers/2017_Oct/acov_tid296011_thumb.jpg)

*Artist: Nhor
*Album: Wildflowers: Spring
*Year: 2017
*Genre: Neoclassical Ambient
*Country: United Kingdom (IMG:http://metalarea.org/forum/style_images/flags/United%20Kingdom.png)
*Format: mp3@CBR320kbps
*Size: 49MB

Tracklist:
1. Windowpanes 03:29
2. I Knelt At The Altar That Lays Atop The Stars 03:49
3. There Was A Time When I Knew The Way 01:46
4. Wildflowers 03:41
5. Vernal 01:56
6. Let The Rains Knock At My Door 03:02
7. In Moonlight 02:29
******************************
Total playing time: 20:12



Extended info
Special for Metalarea.org


Technical info
(IMG:http://metalarea.org/images/spectrogram/2017_Oct/12d2992719e0e29df1876f317d8c6c86.png)
Input File: Nhor - Wildflowers- Spring - 01 Windowpanes.mp3
Channels : 2
Sample Rate : 44100
Precision : 16-bit
Duration : 00:03:29.50 = 9238730 samples = 15712.1 CDDA sectors
File Size : 8.48M
Bit Rate : 324k
Sample Encoding: MPEG audio (layer I, II or III)
Comments :
Title=Windowpanes
Artist=Nhor
Album=Wildflowers: Spring
Tracknumber=1
Year=2017



Register


Go to the top of the page
  Insert nick Quick quote
+Quote Post

Reply to this topicStart new topic
1 User(s) are reading this topic (1 Guests and 0 Anonymous Users)
0 Members:

 



- Lo-Fi Version Support form
Copyrights and abuse reports form
Time is now: 19th June 2018 - 03:38:00