Welcome Guest ( Log In | Register )

> И неформату есть предел.

Рэп/хип-хоп/шансон/поп удаляются. Для них есть свои порталы.

 
Reply to this topicStart new topic
> Nhor - Wildflowers: Summer (2017), Neoclassical Ambient (D7)
post Oct 11 2017, 21:07:00
Post #1

Литр
*
Group: Подсевший
Posts: 82
Releases: 45
On Forums: 6 years 1 week
Thanks: 1059 time(s)
Unknown


(IMG:http://metalarea.org/images/audiocovers/2017_Oct/acov_tid296012_thumb.jpg)

*Artist: Nhor
*Album: Wildflowers: Summer
*Year: 2017
*Genre: Neoclassical Ambient
*Country: United Kingdom (IMG:http://metalarea.org/forum/style_images/flags/United%20Kingdom.png)
*Format: mp3@CBR320kbps
*Size: 49MB

Tracklist:
1. Light, Sing To Me 03:18
2. Where Morning Breaks Over The Pines 01:33
3. I Have No Stars Left To Wish Upon 05:56
4. Even In Dreams 03:09
5. You Will Never Shine As Bright As The Moon 02:03
6. I Remember 03:12
7. Sunlit Rest 01:27
******************************
Total playing time: 20:38



Extended info
Special for Metalarea.org


Technical info
(IMG:http://metalarea.org/images/spectrogram/2017_Oct/95a6838f50c9d0f7325a22f0b99c9662.png)
Input File: Nhor - Wildflowers- Summer - 01 Light, Sing To Me.mp3
Channels : 2
Sample Rate : 44100
Precision : 16-bit
Duration : 00:03:18.84 = 8768668 samples = 14912.7 CDDA sectors
File Size : 8.07M
Bit Rate : 325k
Sample Encoding: MPEG audio (layer I, II or III)
Comments :
Title=Light, Sing To Me
Artist=Nhor
Album=Wildflowers: Summer
Tracknumber=1
Year=2017



Register


Go to the top of the page
  Insert nick Quick quote
+Quote Post

Reply to this topicStart new topic
1 User(s) are reading this topic (1 Guests and 0 Anonymous Users)
0 Members:

 



- Lo-Fi Version Support form
Copyrights and abuse reports form
Time is now: 21st September 2018 - 01:48:40