Welcome Guest ( Log In | Register )

> И неформату есть предел.

Рэп/хип-хоп/шансон/поп удаляются. Для них есть свои порталы.

 
ОтветитьСоздать новую тему
> Nhor - Wildflowers: Autumn (2017), Neoclassical Ambient (D7)
post Oct 11 2017, 21:10:46
Post #1

Литр
*
Group: Подсевший
Posts: 81
Releases: 45
On Forums: 5 years 5 months
Thanks: 1014 time(s)
Unknown


(IMG:http://metalarea.org/images/audiocovers/2017_Oct/acov_tid296013_thumb.jpg)

*Artist: Nhor
*Album: Wildflowers: Autumn
*Year: 2017
*Genre: Neoclassical Ambient
*Country: United Kingdom (IMG:http://metalarea.org/forum/style_images/flags/United%20Kingdom.png)
*Format: mp3@CBR320kbps
*Size: 55MB

Tracklist:
1. Where They Once Were 03:34
2. The Trees Knew Not Of Me Then 02:20
3. Moonfall 04:44
4. We Set Their Bodies Free In The Cold River 01:54
5. What We Hid In The Night 04:08
6. Fire Promises Guidance 04:41
7. Fate 01:50
******************************
Total playing time: 23:11



Extended info
Special for Metalarea.org


Technical info
(IMG:http://metalarea.org/images/spectrogram/2017_Oct/9708dc6dae714914b7fcdfbb55210f53.png)
Input File: Nhor - Wildflowers- Autumn - 01 Where They Once Were.mp3
Channels : 2
Sample Rate : 44100
Precision : 16-bit
Duration : 00:03:34.64 = 9465712 samples = 16098.1 CDDA sectors
File Size : 8.70M
Bit Rate : 324k
Sample Encoding: MPEG audio (layer I, II or III)
Comments :
Title=Where They Once Were
Artist=Nhor
Album=Wildflowers: Autumn
Tracknumber=1
Year=2017



Register


Вернуться к началу страницы
  Insert nick Quick quote
+Цитировать сообщение

ОтветитьСоздать новую тему
1 User(s) are reading this topic (1 Guests and 0 Anonymous Users)
0 Members:

 



- Lo-Fi Version Support form
Copyrights and abuse reports form
Time is now: 19th February 2018 - 20:32:54