Welcome Guest ( Log In | Register )

 
Reply to this topicStart new topic
> Sepulchral - Rehearsal Of The Living Dead [demo] (2016), Death Metal (D8)
post Oct 12 2017, 07:28:20
Post #1

...
Group Icon
Group: S-moderation team
Posts: 6,230
Releases: 1276
On Forums: 7 years 3 months
Thanks: 31562 time(s)
Unknown


(IMG:https://metalarea.org/images/audiocovers/2017_Oct/acov_tid296023_thumb.jpeg)

*Artist: Sepulchral
*Album: Rehearsal Of The Living Dead [demo]
*Year: 2016
*Genre: Death Metal
*Country: France (IMG:https://metalarea.org/forum/style_images/flags/France.png)
*Format: mp3@CBR320kbps
*Size: 26MB

Tracklist:
1. Putrefying Mass 04:21
2. Disembowlement of the Dead 02:58
3. Internal Decomposition 03:24
******************************
Total playing time: 10:43

Extended info
Self-released tape limited to 200 copies.
Tape rip + Scans.


Technical info
(IMG:https://metalarea.org/images/spectrogram/2017_Oct/4cdfc2935114492c9a768c59197931a6.png)
Input File: 01 - Putrefying Mass.mp3
Channels : 2
Sample Rate : 44100
Precision : 16-bit
Duration : 00:04:21.54 = 11533738 samples = 19615.2 CDDA sectors
File Size : 10.5M
Bit Rate : 320k
Sample Encoding: MPEG audio (layer I, II or III)
Comments :
Title=Putrefying Mass
Artist=Sepulchral
Album=Rehearsal of the Living Dead
Tracknumber=1
Year=2017-10-02
Genre=22



Register


Go to the top of the page
  Insert nick Quick quote
+Quote Post

Reply to this topicStart new topic
1 User(s) are reading this topic (1 Guests and 0 Anonymous Users)
0 Members:

 



- Lo-Fi Version Support form
Copyrights and abuse reports form
Time is now: 20th June 2018 - 02:52:34