Welcome Guest ( Log In | Register )

 
ОтветитьСоздать новую тему
> Sepulchral - Rehearsal Of The Living Dead [demo] (2016), Death Metal (D8)
post Oct 12 2017, 07:28:20
Post #1

...
Group Icon
Group: S-moderation team
Posts: 5,320
Releases: 1108
On Forums: 6 years 11 months
Thanks: 26440 time(s)
Unknown


(IMG:https://metalarea.org/images/audiocovers/2017_Oct/acov_tid296023_thumb.jpeg)

*Artist: Sepulchral
*Album: Rehearsal Of The Living Dead [demo]
*Year: 2016
*Genre: Death Metal
*Country: France (IMG:https://metalarea.org/forum/style_images/flags/France.png)
*Format: mp3@CBR320kbps
*Size: 26MB

Tracklist:
1. Putrefying Mass 04:21
2. Disembowlement of the Dead 02:58
3. Internal Decomposition 03:24
******************************
Total playing time: 10:43

Extended info
Self-released tape limited to 200 copies.
Tape rip + Scans.


Technical info
(IMG:https://metalarea.org/images/spectrogram/2017_Oct/4cdfc2935114492c9a768c59197931a6.png)
Input File: 01 - Putrefying Mass.mp3
Channels : 2
Sample Rate : 44100
Precision : 16-bit
Duration : 00:04:21.54 = 11533738 samples = 19615.2 CDDA sectors
File Size : 10.5M
Bit Rate : 320k
Sample Encoding: MPEG audio (layer I, II or III)
Comments :
Title=Putrefying Mass
Artist=Sepulchral
Album=Rehearsal of the Living Dead
Tracknumber=1
Year=2017-10-02
Genre=22



Register


Вернуться к началу страницы
  Insert nick Quick quote
+Цитировать сообщение

ОтветитьСоздать новую тему
1 User(s) are reading this topic (1 Guests and 0 Anonymous Users)
0 Members:

 



- Lo-Fi Version Support form
Copyrights and abuse reports form
Time is now: 18th February 2018 - 01:59:54